<?xml version="1.0" standalone="no"?>
<!DOCTYPE svg PUBLIC "-//W3C//DTD SVG 1.1//EN" "http://www.w3.org/Graphics/SVG/1.1/DTD/svg11.dtd" >
<svg>
<metadata>
Created by FontForge 20090622 at Wed Oct 26 07:53:52 2016
 By deploy user
Copyright &#194;&#169; 1992 by Miles Inc. All rights reserved.
</metadata>
<defs>
<font id="DelphianATT" horiz-adv-x="948" >
  <font-face 
    font-family="Delphian ATT"
    font-weight="5"
    font-stretch="normal"
    units-per-em="2048"
    panose-1="0 0 0 0 0 0 0 0 0 0"
    ascent="1638"
    descent="-410"
    x-height="1399"
    cap-height="1399"
    bbox="-267 -512 2132 1798"
    underline-thickness="105"
    underline-position="-355"
    unicode-range="U+0020-U+F002"
  />
<missing-glyph horiz-adv-x="1022" 
d="M76 0v1347h870v-1347h-870zM332 256h358v835h-358v-835z" />
    <glyph glyph-name=".notdef" horiz-adv-x="1022" 
d="M76 0v1347h870v-1347h-870zM332 256h358v835h-358v-835z" />
    <glyph glyph-name=".null" horiz-adv-x="0" 
 />
    <glyph glyph-name="nonmarkingreturn" horiz-adv-x="493" 
 />
    <glyph glyph-name="space" unicode=" " horiz-adv-x="493" 
 />
    <glyph glyph-name="exclam" unicode="!" horiz-adv-x="417" 
d="M126 132q18 18 39 43l32 44l18 27l20 -27l32 -44q15 -23 39 -43l23 -20l-23 -21q-23 -23 -39 -43l-32 -44l-20 -27l-18 27q-18 26 -32 44q-18 23 -39 43l-23 21zM157 112v0l7 -6q10 -10 22.5 -25t23.5 -31l6 -9v0l6 9l23 31l23 25l6 6v0l-6 5q-13 11 -23 25l-23 31l-7 9
v0l-5 -9l-23 -31q-14 -18 -23 -25zM180 301l-47 1042l52 27l26 -921l28 945l53 29l-43 -1122h-69z" />
    <glyph glyph-name="quotedbl" unicode="&#x22;" horiz-adv-x="683" 
d="M224 909h-112l-48 490h208zM120 1349l32 -390h32l32 390h-96zM565 909h-111l-48 490h208zM462 1349l32 -390h32l32 390h-96z" />
    <glyph glyph-name="numbersign" unicode="#" 
d="M214 313h-218l11 48h266l-77 -361h-47zM466 0h-47l66 313h-141l-66 -313h-47l77 361h235zM501 0l77 361h266l-11 -48h-219l-65 -313h-48zM280 396h-266l10 48h219l51 241h-219l10 48h266zM550 396h-235l71 337h235zM564 685h-141l-51 -241h142zM643 444h219l-10 -48h-266
l70 337h266l-10 -48h-218zM444 1171l-86 -403h-266l11 48h219l75 355h47zM668 1171h47l-86 -403h-236l86 403h47l-74 -355h141zM722 816h219l-11 -48h-266l86 403h47z" />
    <glyph glyph-name="dollar" unicode="$" 
d="M368 -17l-39 9q-65 16 -113 47q-58 34 -110 90l-39 41l53 80h8l7 -35q36 -133 208 -177l26 -6l55 538v0l-137 98l-37 32q-94 88 -94 197q-1 118 93 199q81 70 205 94l24 4l2 57h48l-4 -57l24 -1q107 -6 183 -51q8 -5 31 -22l-25 -92h-8l-7 20q-44 83 -185 96l-18 1
l-38 -451v0l224 -172l50 -42q99 -90 99 -190q0 -154 -140 -244q-110 -70 -281 -69h-18l-10 -92h-47zM421 26l19 1q59 3 110 13q182 34 184 196q-2 92 -84 163l-35 27l-143 112v0zM232 999v0l-6 -10q-20 -38 -21 -83q1 -100 68 -166q13 -14 29 -25l358 -270l42 -34
q82 -71 81 -172q-1 -30 -7 -56q-2 -10 -8 -26v0l15 25q21 41 22 89q1 95 -86 176q-20 18 -40 34l-342 264l-31 25q-79 70 -79 174q0 24 4 49zM433 725v0l39 420l-19 -3q-76 -13 -126.5 -70t-50.5 -132q1 -84 70 -145l40 -33z" />
    <glyph glyph-name="percent" unicode="%" horiz-adv-x="1441" 
d="M821 573q80 129 199 131q86 0 158 -79q59 -64 85 -159q16 -60 16 -123q0 -65 -17 -129t-49 -117q-71 -121 -187 -120q-122 1 -202 131q-64 98 -64 228q-1 137 61 237zM1190 335q-2 159 -59 253q-41 71 -112 73q-71 -3 -111 -72q-59 -98 -59 -250q0 -111 33 -196
q48 -124 140 -123q73 0 111 70q57 99 57 245zM1163 78v0l22 29q63 91 64 226q0 68 -22 141q-19 62 -49 107q-12 17 -38 49v0l28 -57q53 -118 52 -229q0 -123 -40 -227q-5 -14 -17 -39v0zM897 627v0q-105 -125 -107 -291q0 -135 61 -220q8 -14 29 -37v0l-20 43q-19 40 -27 81
q-14 59 -14 135q-1 79 15 140q9 42 30 85zM1024 1194h45l-645 -1217h-43zM223 1063q78 129 200 131q115 1 195 -130q63 -103 63 -234q0 -129 -59 -233q-75 -130 -191 -130q-126 0 -205 130q-64 98 -64 228q-1 136 61 238zM592 825q-2 117 -32 197q-48 126 -138 129
q-113 -4 -152 -170q-19 -75 -19 -153q0 -112 33 -197q48 -122 143 -121q88 2 133 123q32 86 32 192zM565 569v0l22 28q62 86 64 226q0 72 -21 141q-18 60 -50 107q-12 17 -38 50v0q20 -38 29 -58q25 -56 38 -112t13 -120q-1 -133 -39 -224zM299 1116v0q-62 -70 -85 -145.5
t-22 -145.5q1 -135 61 -219l30 -38v0l-21 44q-41 91 -41 211q-1 131 45 229z" />
    <glyph glyph-name="ampersand" unicode="&#x26;" horiz-adv-x="2048" 
d="M1567 0l-36 20l-205 136l-38 24v0l-33 -27q-83 -67 -175 -112q-74 -38 -148 -52q-58 -13 -129 -12q-293 -1 -485 194q-166 170 -166 387q0 154 89 293q82 122 217 203v0l-6 19q-10 28 -13 75q1 213 183 299q70 34 159 34q46 0 93 -10q121 -28 217 -123l-43 -102h-10
q-15 73 -99 128q-76 50 -157 52q-67 0 -119 -37q-57 -39 -75 -98q-13 -37 -12 -86q0 -119 80 -234q55 -79 163 -191q136 -140 381 -328l149 -113v0l9 19q63 136 63 298q0 79 -7 117l-7 26h-336l28 55h680h23q38 0 67 14l20 10l-74 -103l-6 9q-14 16 -46 15h-291l1 -17l3 -86
q-1 -216 -74 -361l-14 -24v0l336 -228l53 -33q51 -29 91 -36l37 -2v-12h-164l-66 42q-486 314 -783 589q-145 132 -260 283q-65 82 -92 158q-20 51 -19 116q0 69 16 117l7 18v0l-6 -7q-20 -25 -30 -65q-15 -50 -14 -91q2 -288 671 -809q267 -209 482 -340l18 -11h-98z
M936 46v0l-78 2q-111 6 -215 51q-137 56 -240 164q-94 95 -129 197q-32 79 -42 142q-5 44 -6 73l-5 -14q-14 -42 -14 -87q-1 -75 25 -151q38 -119 116 -201q86 -94 224 -145q118 -46 245 -45q47 0 81 6q13 1 38 8v0zM1244 210v0l-102 80q-178 140 -332 281
q-224 202 -324 400l-12 24v0l-46 -36q-63 -53 -98 -126q-41 -83 -41 -167q1 -200 154 -364q182 -199 474 -201q166 0 307 95z" />
    <glyph glyph-name="quotesingle" unicode="'" horiz-adv-x="531" 
d="M316 909h-111l-48 490h208zM213 1349l32 -390h32l32 390h-96z" />
    <glyph glyph-name="parenleft" unicode="(" horiz-adv-x="493" 
d="M515 1423q-43 -80 -59 -120q-76 -182 -117 -559q-12 -106 -11 -193q0 -96 13 -212q15 -140 43 -259q24 -105 61 -210q20 -62 70 -182h-44q-160 177 -226 343q-48 115 -72 245.5t-23 268.5q0 134 23 261q24 140 79 274q63 161 147 263q22 27 72 80h44v0zM419 1308v0
l-7 -11q-142 -226 -191 -505q-23 -128 -22 -245q2 -268 90 -493q41 -107 99 -198l36 -54v0l-24 61q-36 92 -61 190q-38 140 -51 275q-10 88 -9 195q0 119 11 231q11 129 43 276q31 153 79 263z" />
    <glyph glyph-name="parenright" unicode=")" horiz-adv-x="493" 
d="M-23 -312q42 79 59 120q40 97 77 287q48 248 51 471q-2 339 -118 675q-22 61 -69 182h43q181 -202 248 -398q74 -216 74 -465q-2 -284 -102 -529q-81 -197 -219 -343h-44v0zM79 -184v0v-1l16 26q129 255 174 470q23 128 24 265q-4 399 -190 680l-37 53v0l24 -60
q38 -100 63 -190q58 -216 60 -484q-1 -204 -54 -493q-43 -181 -78 -263z" />
    <glyph glyph-name="asterisk" unicode="*" 
d="M414 1399h119v-110l84 52l69 -94l-104 -65l104 -68l-66 -96l-87 52v-110h-119v117l-86 -59l-67 95l102 65l-102 65l60 98l93 -59v117zM495 1217v133h-43v-139l-108 71l-20 -35l106 -71l-108 -68l24 -36l106 69v-131h43v123l106 -58l23 34l-118 72l118 71l-25 34z" />
    <glyph glyph-name="plus" unicode="+" 
d="M400 309h-299v49h348v-348h-49v299zM498 10v348h348v-49h-299v-299h-49zM449 755v-348h-348v49h299v299h49zM547 456h299v-49h-348v348h49v-299z" />
    <glyph glyph-name="comma" unicode="," horiz-adv-x="455" 
d="M317 81l-38 -43q-20 -29 -30.5 -46.5t-29.5 -55.5l-18 -38h-28l28 109l-4 6l-20 25l-40 43l-23 20l23 21q22 22 39 43l32 44l20 27l18 -27q17 -27 32 -44q17 -24 39 -43l23 -21zM286 101v0l-7 6q-11 9 -23.5 24t-22.5 32l-6 9v0l-6 -9l-23 -31l-23 -25l-6 -6v0l6 -5
q10 -9 24 -25.5t24 -30.5l6 -9l5 9l23 31q13 19 22 25z" />
    <glyph glyph-name="hyphen" unicode="-" horiz-adv-x="493" 
d="M27 673l438 158v-55l-438 -158v55zM27 783l438 158v-55l-438 -158v55z" />
    <glyph glyph-name="period" unicode="." horiz-adv-x="455" 
d="M137 132q23 20 39 43l32 44l20 27l18 -27l32 -44q20 -25 39 -43l23 -20l-23 -21q-22 -20 -39 -43q-15 -18 -32 -44l-18 -27l-20 27l-32 44q-18 21 -39 43l-23 21zM169 112v0l6 -6l23 -25l23 -31l7 -9v0l5 9q18 30 46 56q2 0 7 6v0l-7 5q-10 7 -23.5 23.5t-22.5 32.5l-6 9
v0l-6 -9l-23 -31q-13 -16 -23 -25z" />
    <glyph glyph-name="slash" unicode="/" horiz-adv-x="683" 
d="M678 1423l42 -17l-717 -1429l-42 17z" />
    <glyph glyph-name="zero" unicode="0" 
d="M98 826q28 132 103 233q97 133 273 135q297 -3 377 -368q25 -117 25 -239q0 -124 -25 -241q-35 -162 -122 -257q-103 -112 -255 -112q-173 0 -273 135q-76 98 -103 234q-27 123 -26 241q-1 119 26 239zM219 586q-1 -83 11 -181q13 -128 62 -236q62 -145 183 -143
q121 0 182 143q70 163 72 417q-2 252 -72 416q-60 144 -185 143q-143 0 -212 -229q-40 -135 -41 -330zM304 66v0q-40 56 -55 87q-78 149 -79 424q-1 104 13 206q18 144 68 241q11 24 50 80v0q-111 -118 -147 -245q-33 -114 -33 -285q0 -164 33 -277q35 -122 150 -231v0z
M640 59v0q46 44 74 80q112 138 113 442q-2 173 -36 287q-37 122 -151 245v0q40 -59 56 -89q50 -96 69 -241q13 -102 13 -207q-2 -272 -80 -423q-17 -33 -58 -94v0z" />
    <glyph glyph-name="one" unicode="1" 
d="M357 0l10 8q35 34 37 105v845l-2 36l-4 37q-3 16 -10 31l-5 9l70 53v-1124h-96zM551 1194v-1081q1 -71 37 -105l10 -8h-96v1151z" />
    <glyph glyph-name="two" unicode="2" 
d="M860 49l-17 -96h-6l-7 15l-8 14q-12 18 -33 18h-693v16l52 33h712zM195 512q-142 140 -142 292q0 174 132 286q123 105 303 104q170 -2 282 -91q127 -101 128 -263q0 -106 -49.5 -190t-124.5 -154l-130 -118l-123 -112l-140 -119v0h489q39 -5 55 31l7 16h7l-23 -96h-667
l237 212q66 59 114 106q62 59 108 129q92 138 93 289q0 132 -63 218q-66 91 -200 93q-133 -1 -208 -88q-79 -91 -80 -212q0 -71 27 -119q19 -33 80 -93l32 -31l-33 -32l-23 22q-132 123 -132 258q0 94 60 186l58 82v0q-97 -91 -122 -135q-45 -76 -45 -167q0 -149 127 -268
l29 -27l-35 -36zM685 1122v0l43 -58q73 -112 72 -227q-1 -71 -20 -141q-17 -62 -48 -119l-12 -22l22 23q107 118 107 264q0 139 -102 228z" />
    <glyph glyph-name="three" unicode="3" 
d="M444 696q185 -6 187 208q0 98 -61 169.5t-160 71.5q-94 0 -157 -64q-60 -60 -59 -157v-15h-49v16q0 118 90 197q83 73 207 72q127 0 225 -76q111 -86 111 -205q-1 -90 -60.5 -154t-145.5 -80v0l32 -8q113 -31 183 -122.5t70 -209.5q1 -161 -124 -264q-119 -99 -278 -98
q-227 -1 -347 191l-21 35l37 25l22 -39q97 -164 255 -163q119 -1 214 87t95 207q0 99 -66 163q-60 58 -165 65q-18 1 -45 1h-182v49h182q18 0 46 -2q125 -9 197 -77q81 -75 82 -194q-2 -197 -209 -295l-44 -20v0l46 11q110 28 182.5 113.5t73.5 199.5q0 103 -64 186
q-61 78 -156 108q-49 15 -101 18q-19 1 -39 1h-196v49h192zM636 746v0l14 10q79 62 79 161q0 109 -115 181l-13 8v0l12 -14q66 -83 67 -185q0 -38 -9 -74t-23 -65z" />
    <glyph glyph-name="four" unicode="4" 
d="M534 0l11 9q26 23 34 68l2 29v193h-524v49h573v-348h-96zM679 348h189v-96l-6 16q-5 9 -12 19l-13 12h-15h-94v-193l2 -28q4 -45 33 -69l12 -9h-96v348zM679 397v797h49v-748h91l15 3q11 3 16 12l11 20l7 12v-96h-189zM72 397l558 733v-733h-558zM581 446v519v0
l-398 -519v0h398z" />
    <glyph glyph-name="five" unicode="5" 
d="M274 1073h570v-49h-530v0l-18 -181v0h25q216 -4 369 -112q169 -121 169 -336q-2 -189 -128 -303.5t-310 -114.5q-252 -1 -355 216l-25 57l48 17q79 -244 292 -241q132 -1 233 101q98 99 98 237q0 220 -235 302q-92 32 -194 32q-27 0 -58 -2l9 51h50q196 -3 325 -91
q151 -102 152 -290q-1 -174 -167 -315v0q215 115 216 337q-2 196 -169 311q-137 95 -351 97h-40h-12zM844 1122h-571l6 49h502h16q19 1 38 32l9 15v-96z" />
    <glyph glyph-name="six" unicode="6" 
d="M488 849q413 -114 414 -434q0 -116 -61 -216t-169 -161.5t-228 -60.5q-168 -1 -281 110q-118 117 -119 278q-2 232 381 661l185 200l75 80h92v-6l-61 -56q-132 -123 -247 -258q-278 -325 -278 -555q1 -141 102.5 -248.5t250.5 -107.5q117 1 180.5 75.5t64.5 185.5
q-2 168 -138 268t-294 101h-23l33 49h18q119 -5 230 -64q190 -102 218 -284q5 -33 5 -67l-1 -35v0l9 30q6 27 7 63q0 158 -121 268q-110 99 -268 136q-16 4 -48 10l31 49zM523 19v0l-52 8q-145 29 -235 137q-94 117 -98 268l6 128v0q-21 -47 -34 -84q-18 -50 -17 -104
q-1 -137 107 -251q128 -99 292 -99z" />
    <glyph glyph-name="seven" unicode="7" 
d="M188 -3q41 38 67 85l511 941v0h-656l21 50h727l-592 -1096h-103zM909 1171l-28 -49h-739l16 49h751z" />
    <glyph glyph-name="eight" unicode="8" 
d="M357 660q-34 21 -58 40q-48 33 -83 74q-65 74 -63 156q-1 122 116 198q101 65 230 66q116 -1 202 -56q104 -66 105 -173q1 -115 -103 -193q-43 -34 -109 -69l-29 -16v0l39 -26q93 -62 165 -134q102 -104 102 -214q0 -149 -136 -248q-123 -90 -274 -88q-152 0 -266 87
q-130 99 -128 243q0 127 81 215q62 67 158 114q21 11 51 24v0v0zM408 627v0q-42 -19 -73 -36q-59 -41 -89 -101q-33 -68 -33 -203q0 -261 268 -261q101 1 179 64q85 69 85 168q-2 96 -81 174q-68 66 -158 129zM739 113l17 15q64 64 66 169q0 111 -87 196q-69 67 -173 138
l-175 119q-64 43 -102 84q-56 57 -55 147q0 36 11 69l9 23l-21 -27q-27 -42 -27 -103q-1 -33 9 -63q11 -44 36 -70q36 -42 106 -88l185 -125q102 -71 169 -137q87 -87 87 -197q-1 -75 -41 -131zM203 516l-27 -31q-60 -79 -60 -170q0 -108 75 -186l16 -15l-8 17
q-34 82 -34 191q0 46 7 89q5 36 16 66zM513 720v0l41 23q59 37 72 59q17 27 27 77q6 43 6 80q-2 79 -49 134q-43 52 -131 52q-197 -3 -200 -169q2 -70 38 -110t111 -88l85 -58v0zM665 794q18 14 26 23q64 65 66 148q0 76 -65 130l-24 18l12 -23q9 -18 13 -29q15 -44 15 -104
q0 -42 -9 -80q-7 -33 -22 -61z" />
    <glyph glyph-name="nine" unicode="9" 
d="M133 679q94 -267 438 -275h24l-27 -49h-39q-138 14 -242 69q-208 105 -210 370q1 235 198 348q90 52 196 52q167 -2 283 -125.5t118 -287.5q0 -203 -173 -419q-103 -128 -317 -335l-101 -97h-113v6l23 14q25 15 39 26q133 98 329 308t196 396q0 108 -57.5 205.5
t-152.5 150.5q-80 44 -168 44q-106 1 -172 -72q-62 -68 -63 -176q0 -103 52 -174q57 -78 148 -104q111 -34 272 -40l42 -2l-26 -49l-23 1q-160 6 -250 31q-123 33 -199 145l-25 39v0v0zM353 1128v0h11l44 1q162 0 286 -141q109 -122 110 -301l-4 -29l-5 -47v0q12 39 19 67
q9 38 9 83q0 115 -65 212t-170 143q-69 29 -145 29q-44 -1 -73 -10z" />
    <glyph glyph-name="colon" unicode=":" horiz-adv-x="455" 
d="M137 132q23 20 39 43l32 44l20 27l18 -27l32 -44q20 -25 39 -43l23 -20l-23 -21q-22 -20 -39 -43q-15 -18 -32 -44l-18 -27l-20 27l-32 44q-18 21 -39 43l-23 21zM169 112v0l6 -6l23 -25l23 -31l7 -9v0l5 9q18 30 46 56q2 0 7 6v0l-7 5q-10 7 -23.5 23.5t-22.5 32.5l-6 9
v0l-6 -9l-23 -31q-13 -16 -23 -25zM137 697q24 23 39 42l32 44l20 27l18 -27q18 -28 32 -44q17 -22 39 -42l23 -21l-23 -22q-40 -41 -71 -86l-18 -27l-20 27q-30 38 -32 44q-17 20 -39 42l-23 21zM169 675v0l6 -5q14 -12 23 -25l23 -32l7 -9v0l5 9q7 13 21.5 30.5t24.5 26.5
l7 6v0l-7 5l-23 26l-23 30l-6 10v0l-6 -10q-7 -11 -23 -30l-23 -26z" />
    <glyph glyph-name="semicolon" unicode=";" horiz-adv-x="455" 
d="M318 81q-50 -48 -68.5 -80.5t-36.5 -73.5l-12 -29h-24l24 109l-4 6l-19 25q-21 24 -40 43l-23 20l23 21q23 22 40 43l31 44l19 27l18 -27q18 -28 32 -44q17 -22 40 -43l23 -21zM286 101v0l-6 6l-24 25q-15 14 -23 31l-5 9v0l-5 -9q-9 -17 -23 -31l-24 -25l-6 -6v0l6 -5
q10 -9 25 -26t22 -30l5 -9l5 9q6 13 21 30t26 26zM138 697q27 26 40 42l31 44l19 27l18 -27q18 -29 32 -44q16 -20 40 -42l23 -21l-23 -22q-26 -25 -40 -42l-32 -44l-18 -27l-19 27l-31 44q-16 18 -40 42l-23 21zM170 675v0l6 -5q11 -10 24.5 -26.5t22.5 -30.5l5 -9v0l5 9
q10 17 23 32l24 25l6 6v0l-6 5l-24 26q-17 19 -23 30l-5 10v0l-5 -10q-7 -12 -23 -30l-24 -26z" />
    <glyph glyph-name="less" unicode="&#x3c;" horiz-adv-x="2048" 
d="M1637 1235v-160l-1024 -468l1024 -455v-161l-1225 544v144z" />
    <glyph glyph-name="equal" unicode="=" 
d="M119 163v49h709v-49h-709zM828 261h-709v49h709v-49zM119 408v49h709v-49h-709zM828 506h-709v49h709v-49z" />
    <glyph glyph-name="greater" unicode="&#x3e;" horiz-adv-x="2048" 
d="M1637 688v-148l-1225 -549v162l1014 461l-1014 456v165z" />
    <glyph glyph-name="question" unicode="?" horiz-adv-x="872" 
d="M357 132q18 18 39 43l32 44l18 27l20 -27l32 -44q15 -23 39 -43l23 -20l-23 -21q-23 -23 -39 -43l-32 -44l-20 -27l-18 27q-18 26 -32 44q-18 23 -39 43l-23 21zM388 112v0q4 -6 7 -6q27 -26 46 -56l5 -9v0l7 9l23 31q8 13 23 25l7 6v0l-7 5q-11 9 -23 25l-23 31l-7 9v0
l-5 -9l-23 -31q-14 -18 -23 -25zM48 964l-3 17q-10 56 -10 88q-1 97 63 189q112 166 346 165q169 1 280 -105q121 -116 121 -273q0 -107 -55 -191q-47 -74 -121 -125q-68 -49 -148 -81l-33 -13l-16 -351h-48v363q257 139 256 410q1 82 -28 154.5t-88 120.5q-65 53 -136 54
q-104 -1 -170 -87q-57 -70 -58 -169q0 -36 12 -78l5 -17l-53 -24l-7 19q-13 36 -12 78q0 177 176 274v0q-62 -18 -107 -51q-123 -87 -124 -250q0 -36 7 -73l4 -20zM599 729v0q28 17 41 28q149 116 150 297q0 96 -54 182t-140 129l-41 17v0l35 -21q146 -100 145 -306
q0 -77 -26.5 -154t-72.5 -132q-12 -15 -37 -40v0z" />
    <glyph glyph-name="at" unicode="@" horiz-adv-x="1821" 
d="M1324 -95q-61 -21 -92 -27q-116 -30 -266 -29q-351 0 -566 197q-247 227 -245 546q0 229 135.5 413t352.5 263q131 48 272 48q309 0 531 -205q229 -211 230 -517q0 -304 -235 -431q-88 -49 -187 -48q-168 -1 -221 117l-5 13l-27 -12q-52 -22 -125 -23q-121 1 -196 64
q-91 75 -90 182q-2 122 107 200q92 65 224 66q42 0 73 -8q9 -2 26 -8v59q0 14 -2 30q-16 119 -142 116q-121 -3 -170 -57l-12 -16v127q40 -15 94 -16h7q8 -1 14 1l30 4q36 5 71 5q42 0 81 -9q168 -38 167 -208v-388q-1 -27 1 -47q6 -126 94 -127q126 1 218 151q61 99 63 267
q-3 269 -150 453q-87 109 -202 162.5t-267 54.5q-231 -1 -381 -127q-158 -134 -213 -341q-25 -93 -24 -202q0 -311 180 -510q175 -192 500 -191q160 -1 333 55l14 -47v0zM396 116v0l-26 40q-122 196 -123 442q-1 96 20 184q26 121 92 221q11 19 38 55v0l-44 -45
q-80 -90 -119 -216q-30 -95 -29 -195q-1 -122 42 -243.5t118 -208.5zM998 904v0q68 -51 68 -160v-400q1 -112 67 -153l45 -25v0q-43 38 -56 80q-11 28 -12 60l-2 47v395q2 107 -110 156v0zM1474 253v0q19 13 28 22q125 109 124 322q-2 264 -158 426l-34 33v0l31 -42
q117 -170 119 -422q-1 -84 -19 -160q-20 -82 -69 -150zM1016 653q-41 19 -89 21q-87 0 -144 -59q-51 -53 -51 -147q1 -125 79 -178q43 -33 99 -32q48 0 99 36l7 5v354zM751 278v0l6 -4l-7 9q-68 81 -68 161q0 104 44 168l17 23v0l-21 -16q-83 -66 -82 -158q-1 -110 108 -181
z" />
    <glyph glyph-name="A" unicode="A" horiz-adv-x="1252" 
d="M-3 0l5 4q15 11 24 21q13 13 23.5 28t18.5 36l475 1110v0l-17 44l-6 14l-7 15q-5 6 -15 10l-5 2l45 70l553 -1354h-115l5 3q25 16 25 51l-2 16l-11 28l-179 421v0h-496v0l-180 -425q-6 -12 -9 -27l-3 -19q0 -20 20 -41l7 -7h-156zM793 574v0l-219 557v0l-233 -557v0h452z
M606 1467l563 -1369q21 -56 74 -93l7 -5h-104l-577 1403z" />
    <glyph glyph-name="B" unicode="B" horiz-adv-x="1024" 
d="M103 0l10 8q35 34 37 105v1173q-2 70 -37 105l-10 8h102v-1399h-102zM632 745q145 -25 237 -118q96 -97 96 -243q-1 -174 -134 -286q-107 -90 -304 -97l-54 -1h-213v1399h175l79 -2q69 -3 123 -24q62 -24 113 -71q55 -52 79 -117q18 -51 19 -108q-2 -165 -138 -267
q-43 -34 -85 -50l-26 -10v0zM315 55h162q35 -1 58 1q129 5 199 96q64 85 66 216q-2 137 -73 229q-73 96 -212 105h-65h-135v-647zM683 59v0q115 56 158 115q67 91 69 193q-1 79 -46 161.5t-142 141.5v0q132 -100 133 -294q0 -75 -24 -142q-18 -53 -49 -89q-36 -44 -92 -81z
M315 757h123q119 -2 186 105q56 90 59 213q0 69 -24 129q-49 126 -179 138l-53 2h-112v-587zM656 835v0q137 94 137 240q-2 151 -124 228l-33 18v0l29 -28q20 -20 32 -45q41 -80 41 -181q-2 -113 -46 -183q-11 -18 -36 -49v0z" />
    <glyph glyph-name="C" unicode="C" horiz-adv-x="1403" 
d="M1285 38l-24 3q-8 0 -22 -3l-78 -16l-143 -31q-81 -14 -173 -14q-144 -1 -258 34q-152 44 -270 147q-244 206 -245 539q-1 319 249 534q223 192 564 192q92 0 161 -12q44 -7 167 -43q31 -9 52 -9q17 -1 27 1l19 2l29 -141l-10 -2l-16 15q-111 96 -283 125q-57 9 -115 9
q-285 -1 -482.5 -190.5t-196.5 -471.5q1 -205 109 -372.5t297 -247.5q126 -55 259 -54q75 -1 161 19q158 36 251 125l10 -2l-15 -141zM449 129v0l-55 57q-42 43 -66 76q-147 188 -146 443q-1 206 122 393q40 63 78 101q17 18 57 54v0q-50 -35 -73 -54q-240 -197 -239 -498
q-1 -143 67 -287q45 -100 110 -165q25 -28 76 -66z" />
    <glyph glyph-name="D" unicode="D" horiz-adv-x="1555" 
d="M98 0l10 8q28 24 34 68l3 37v1173l-3 37q-7 55 -44 76h102v-1399h-102zM571 1399h126q356 -8 553 -173q244 -204 244 -517q-2 -203 -120 -385q-122 -189 -302 -263q-147 -62 -329 -61h-124h-364v1399h316zM310 55h264h123q188 0 348 106q152 101 230 283q55 125 54 259
q-1 189 -100 342q-101 157 -270 234q-128 58 -280 63l-156 2h-213v-1289zM1113 140v0l67 51q44 33 75 66q182 188 184 450q0 134 -62 265q-40 84 -100 153q-40 46 -87 82q-27 21 -84 57v0q51 -42 75 -66q38 -40 81 -102q53 -77 78 -141q43 -109 44 -243q-2 -250 -153 -444
q-27 -35 -67 -76z" />
    <glyph glyph-name="E" unicode="E" horiz-adv-x="872" 
d="M101 0l10 8q28 24 34 68l3 37v1173l-3 37q-7 55 -44 76h102v-1399h-102zM258 0v1399h509v-102l-8 13q-20 27 -51 32l-27 2h-368v-643h347q53 -3 77 36l7 11v-149q-22 49 -84 47h-347v-591h394h15q29 1 60 35l12 12l8 -10l-58 -92h-486z" />
    <glyph glyph-name="F" unicode="F" horiz-adv-x="872" 
d="M109 0l10 8q35 34 37 105v1173q-2 70 -37 105l-10 8h102v-1399h-102zM266 1399h551v-102l-8 13q-19 26 -50 32l-28 2h-410v-643h363q46 -2 76 36q2 5 8 11v-149q-22 49 -84 47h-363v-533q-1 -10 4 -37q7 -57 43 -76h-102v1399z" />
    <glyph glyph-name="G" unicode="G" horiz-adv-x="1441" 
d="M1162 22q-76 -22 -142 -31q-88 -14 -177 -14q-140 -1 -254 34q-232 68 -374 256q-140 184 -141 431q-1 319 251 533q226 193 565 192q131 1 330 -55q34 -10 55 -10q9 -2 26 3l17 3l29 -141l-10 -2l-16 15q-52 47 -122 77q-77 33 -161 46q-57 9 -116 9q-285 -1 -483 -188
q-201 -190 -200 -474q1 -285 197 -479t480 -195q79 0 154 18q34 7 66 20l21 8v485q0 9 -4 37q-5 42 -33 67l-10 9h102v-640zM460 123v0l-61 63q-119 125 -165 245q-51 125 -50 275q-1 141 45 251q24 61 78 140q58 86 136 156v0l-74 -55q-111 -87 -176 -223.5t-64 -274.5
q-1 -141 68 -286q45 -100 110 -165q28 -31 75 -66zM1267 676h102l-10 -9q-36 -34 -37 -104v-502l-55 -16v631z" />
    <glyph glyph-name="H" unicode="H" horiz-adv-x="1555" 
d="M106 0l10 8q35 34 37 105v1173q-2 70 -37 105l-10 8h102v-1399h-102zM318 726v-613l3 -37q6 -56 44 -76h-102v1399h102l-10 -8q-29 -25 -34 -68l-3 -37v-505h919v505l-3 37q-7 55 -44 76h102v-1399h-102l10 8q28 24 34 68l3 37v613h-919zM1347 1399h102l-10 -8
q-29 -25 -34 -68l-3 -37v-1173l3 -37q6 -56 44 -76h-102v1399z" />
    <glyph glyph-name="I" unicode="I" horiz-adv-x="493" 
d="M117 0l10 8q26 21 33 68l4 37v1173l-4 37q-9 56 -43 76h102v-1399h-102zM274 1399h102l-9 -8q-25 -22 -34 -68l-4 -37v-1173l4 -37q7 -42 34 -68l9 -8h-102v1399z" />
    <glyph glyph-name="J" unicode="J" horiz-adv-x="645" 
d="M230 -33q19 -1 34 1q168 11 166 215v49v1167h102l-10 -8q-27 -22 -33 -68l-4 -37v-1053v-39q-3 -262 -223 -262q-180 0 -224 185l-5 22h55l3 -14q6 -32 23 -58q35 -64 98 -62q110 -1 108 151v76v1054l-4 37q-9 56 -43 76h102v-1167v-63q-2 -166 -121 -197l-24 -5v0v0z
" />
    <glyph glyph-name="K" unicode="K" horiz-adv-x="1214" 
d="M113 0l10 8q26 21 33 68l4 37v1173l-4 37q-9 56 -43 76h102v-1399h-102zM390 711l680 -711h-144l8 5q16 10 17 24q0 11 -13 23l-592 618v0l-21 -25v-532q1 -71 37 -105l10 -8h-102v1399h102l-10 -8q-36 -35 -37 -105v-565v0l587 607q25 24 25 49q0 7 -1 11l-3 11h149
l-15 -7q-19 -9 -33 -20.5t-26 -24.5l-545 -560v0l672 -713l23 -25q25 -26 47 -40l15 -9h-93l-705 744v0z" />
    <glyph glyph-name="L" unicode="L" horiz-adv-x="872" 
d="M106 0l10 8q35 34 37 105v1173q-2 70 -37 105l-10 8h102v-1399h-102zM263 1399h102l-10 -8q-29 -25 -34 -68l-3 -37v-1231h400q46 -5 102 36l15 11l8 -7l-51 -95h-529v1399z" />
    <glyph glyph-name="M" unicode="M" horiz-adv-x="1783" 
d="M168 144q-3 -35 -3 -71l2 -35q2 -14 8 -27l5 -11h-133l13 14q37 39 47 138l96 1119v0l-28 61q-17 31 -44 55l-17 12h95l648 -1352l-31 -70l-570 1181v0zM884 114v0l-620 1285h92l-4 -11q-3 -9 -3 -20q-1 -16 6 -30l9 -20v0l518 -1072v0l493 1085l-1 9l-8 24q-8 14 -15 24
l-11 11h90l141 -1399h-92l6 8q14 20 15 60q0 18 -1 28l-112 1122v0zM1577 1399l-7 -10q-8 -13 -11 -23l-2 -24q-1 -20 2 -39l125 -1239l2 -15q7 -28 25 -44q2 -1 6 -5h-91l-141 1399h92z" />
    <glyph glyph-name="N" unicode="N" horiz-adv-x="1555" 
d="M200 1261v0v-1175q-1 -14 2 -29q6 -47 45 -57h-149l13 6q33 17 34 50v30v1228v0l-26 33q-13 16 -21 24l-29 22l-9 6h83l1264 -1333v-73zM204 1399h115l-6 -11q-2 -3 -1 -8q0 -23 34 -57l1005 -1049v0v1040q0 14 -2 30q-5 36 -32 49l-13 6h149q-40 -11 -45 -57
q-3 -16 -2 -28l1 -1180z" />
    <glyph glyph-name="O" unicode="O" horiz-adv-x="1669" 
d="M302 1223q226 200 532 200q142 -1 274 -47q144 -51 256 -152q233 -211 234 -515q0 -304 -230 -524q-218 -208 -533 -208q-303 0 -520 194q-129 111 -189 263q-56 136 -56 276q1 307 232 513zM235 719q-1 -285 153 -478q167 -209 446 -209q127 0 223 39q127 50 221 170
q153 191 155 473q0 105 -24 198q-54 202 -207 332q-143 122 -368 124q-150 1 -260 -51t-195 -161q-143 -178 -144 -437zM419 137v0q-95 102 -139.5 171.5t-72.5 181.5t-27 226q0 259 135 433q44 59 127 141v0q-102 -77 -152 -131q-84 -90 -130 -232q-36 -108 -35 -212
q-1 -115 40.5 -233.5t100.5 -192.5q50 -63 153 -152v0zM1252 142v0q101 90 149 150q60 74 100 188q42 119 42 235q-1 167 -84 325q-59 114 -230 246v0q103 -104 147 -170q57 -88 88 -206q24 -95 24 -198q0 -161 -57 -311q-42 -110 -179 -259v0z" />
    <glyph glyph-name="P" unicode="P" horiz-adv-x="1024" 
d="M105 0l10 8q35 34 37 105v1173q-2 70 -37 105l-10 8h102v-1399h-102zM262 1399h201q33 0 69 -2q209 -13 314 -114q127 -121 127 -307q0 -124 -58 -224q-52 -92 -142 -147.5t-184 -54.5q-26 -1 -62 5q-28 3 -43 8l-16 5v11l19 2q47 5 92 21q227 77 229 383
q-1 164 -96 260.5t-254 98.5h-141v-1231l3 -37q6 -56 44 -76h-102v1399zM743 646v0l25 18q66 51 109 141q40 86 41 174q0 203 -169 314l-45 26v0q20 -17 35 -31q49 -46 79 -102q45 -85 45 -196q0 -194 -100 -322z" />
    <glyph glyph-name="Q" unicode="Q" horiz-adv-x="1669" 
d="M1350 117q137 -152 265 -181l26 -5v-8l-29 -4q-48 -5 -96 -6q-54 -1 -92 7q-62 10 -118 38.5t-94 66.5l-24 25v0l-10 -5q-33 -16 -83 -30q-135 -39 -262 -38q-315 0 -535 207q-232 217 -231 523q-1 304 232 516q221 199 535 200q232 -1 426 -121q204 -126 289 -334
q51 -124 51 -264q0 -155 -56 -274q-63 -133 -189 -265l-17 -16l-10 -7v0zM1442 -38l-33 20q-32 20 -66 51.5t-54 60.5l-10 14v0l-42 -30v0l9 -11q27 -34 69.5 -59.5t92.5 -37.5zM232 719q-1 -130 35.5 -254t119.5 -224q169 -209 447 -209q275 0 444 206q154 189 157 474
q0 108 -24 200q-35 134 -122 244q-166 210 -455 212q-274 -2 -440 -192q-161 -186 -162 -457zM410 147v0q-88 94 -129 157q-49 74 -77 185.5t-27 226.5q0 99 23 194q27 114 87 204q42 62 147 168v0q-169 -129 -230 -244q-81 -154 -82 -323q-1 -160 77 -318q56 -115 211 -250
v0zM1267 158v0q89 77 132 130q61 74 103.5 193.5t42.5 234.5q0 104 -35 211q-45 139 -132 232q-41 43 -136 115v0q138 -140 186 -254q62 -146 62 -308q0 -156 -53 -302q-41 -111 -170 -252v0z" />
    <glyph glyph-name="R" unicode="R" horiz-adv-x="1214" 
d="M324 113q1 -71 37 -105l10 -8h-102v1399h131l93 -2q164 -8 275 -110q120 -110 120 -268q0 -90 -42 -172q-45 -87 -124 -144q-32 -23 -80 -47l-24 -12l16 -26q114 -179 308 -394q127 -143 240 -203q17 -11 78 -33v-11h-152l-39 19q-276 138 -453 365q-84 106 -162 227
l-15 23h-115v-498zM1046 54v0l-101 93q-120 114 -230 258q-67 85 -142 199l-14 21l-62 -8l20 -27q107 -145 163 -215q127 -163 366 -321v0zM324 1344v-678h66q140 2 235.5 104t97.5 243q0 66 -26 130q-67 161 -224 195q-28 6 -54 6h-95zM629 702v0q36 19 53 33
q150 109 151 284q-3 183 -173 279l-43 21v0l39 -33q62 -56 94 -130q28 -66 28 -143q0 -71 -24 -134q-28 -76 -88 -139zM112 0l10 8q26 21 33 68l4 37v1173l-4 37q-9 56 -43 76h102v-1399h-102z" />
    <glyph glyph-name="S" unicode="S" horiz-adv-x="910" 
d="M90 223h8l20 -28q33 -46 73 -77q103 -85 246 -86q104 0 169 76t64 179q-1 112 -82 196l-311 309q-42 40 -78 89q-82 107 -81 209q-1 147 114 241q110 90 257 92q45 -1 100 -12l59 -13q17 -4 36 -4q20 -1 40 6l21 7v-143h-9l-15 19q-73 87 -225 85q-92 -2 -153 -69
t-60 -160q-1 -111 107 -216l329 -336q115 -125 116 -266q1 -159 -110 -253q-107 -90 -263 -91q-108 0 -236 55q-59 25 -82 26l-29 -2q-8 -2 -25 -1v168zM283 1299v0l-30 -24q-80 -69 -80 -172q-1 -63 28 -114q35 -67 96 -128l323 -332q104 -106 105 -236q-2 -94 -57 -199v0
q112 100 112 226q0 116 -108 227l-332 339q-112 112 -112 232q-2 115 55 181v0z" />
    <glyph glyph-name="T" unicode="T" horiz-adv-x="1328" 
d="M540 0l10 8q28 24 34 68l3 37v1225h-469q-41 2 -69 -33l-11 -14h-6l-20 108h630v-1399h-102zM697 0v1399h630l-21 -108h-6l-10 14q-29 35 -69 33h-469v-1225l3 -37q6 -56 44 -76h-102z" />
    <glyph glyph-name="U" unicode="U" horiz-adv-x="1517" 
d="M219 659v-94q1 -137 36 -238q69 -211 301 -284q48 -16 97 -20q26 -4 82 -3v0l-69 11q-188 39 -298 196q-93 132 -94 348v85v739h102l-9 -8q-25 -22 -34 -68l-4 -37v-627v-92q1 -126 33 -220q40 -125 169 -208q125 -80 258 -80q96 0 191 45q100 47 183 128l25 25v1029
q-2 70 -37 105l-10 8h102v-1399h-55v187l-25 -24q-70 -65 -138 -105q-64 -38 -133 -57q-84 -25 -178 -24q-250 -1 -405 168q-145 160 -145 417v97v627l-4 37q-9 56 -43 76h102v-740zM1298 1399h102q-40 -22 -43 -76l-4 -37v-1173q-1 -10 4 -37q7 -57 43 -76h-102v1399z" />
    <glyph glyph-name="V" unicode="V" horiz-adv-x="1328" 
d="M736 -112l-661 1414l-15 28q-31 51 -53 62l-14 7h105l667 -1443zM153 1399h113l-6 -8l-7 -13q-5 -11 -4 -26q-1 -17 4 -30l9 -24l525 -1139v0l417 1163l4 14l3 21q-1 9 -4 18l-9 15l-7 9h125l-11 -11q-19 -19 -36 -55l-11 -25l-465 -1286v0z" />
    <glyph glyph-name="W" unicode="W" horiz-adv-x="1934" 
d="M737 -112l-661 1415l-15 28q-25 43 -53 61l-14 7h105l667 -1443zM1342 -112l-336 720v0l-212 -585v0l-640 1376h113l-6 -8l-7 -13q-5 -11 -4 -25q-1 -17 4 -30l9 -24l525 -1139v0l186 517v0l-293 626q-4 9 -15 28q-25 43 -53 61l-13 7h104l667 -1443zM872 1399l-6 -8
l-7 -13q-5 -11 -4 -23q-1 -16 5 -32l8 -24l185 -400v0l152 424l4 14l3 20q-1 9 -4 18l-9 15l-7 9h125l-11 -11q-12 -12 -19 -23l-17 -31q-10 -19 -11 -25l-174 -481v0l308 -668v0l417 1163l4 14l3 21q0 9 -4 17l-9 15l-6 9h125l-12 -11q-9 -9 -19.5 -24.5t-16.5 -29.5
l-10 -25l-465 -1286v0l-641 1376h113z" />
    <glyph glyph-name="X" unicode="X" horiz-adv-x="1100" 
d="M158 1308q-12 22 -29 44q-22 28 -45 41l-12 6h101l768 -1399h-108l4 7q9 13 7 27q0 12 -5.5 26t-8.5 19l-315 564v0l-352 -550q-21 -32 -19 -55l3 -18q3 -9 9 -14l7 -6h-160l21 14q43 30 90 100l373 585v0zM228 1399h114l-6 -7l-5 -12l-4 -20q-1 -9 7 -26l8 -17l252 -452
v0l292 443q20 31 19 53q-1 9 -4 18l-9 14l-6 6h157l-14 -8q-31 -19 -57 -55l-13 -19l-333 -508v0l395 -718q23 -45 57 -74l20 -17h-102z" />
    <glyph glyph-name="Y" unicode="Y" horiz-adv-x="1062" 
d="M70 1319q-33 58 -76 80h95l432 -734v0v-665h-102q39 21 43 76l4 37v529v0zM631 113q1 -71 37 -105l10 -8h-102v673v0l-432 726h111l-4 -4l-7 -11l-2 -13q-2 -27 20 -61l340 -566v0l339 590q5 9 10 24l3 18l-1 10q-1 6 -3 9l-3 4h119l-14 -15q-12 -14 -30 -41l-25 -38
l-366 -630v0v-562z" />
    <glyph glyph-name="Z" unicode="Z" horiz-adv-x="1252" 
d="M1024 1399l-939 -1399h-67l898 1344v0h-762q-67 -1 -116 -36l-14 -11l-7 8l50 94h957zM140 0l939 1399h68l-899 -1344v0h856l32 3q23 3 45 14l35 20q7 3 15 10l8 -7l-52 -95h-1047z" />
    <glyph glyph-name="bracketleft" unicode="[" horiz-adv-x="455" 
d="M121 1399v-1688h-55v1688h55zM305 -234q11 -1 23 2q34 4 79 36l15 11l8 -9l-51 -95h-203v1688h203l51 -95l-8 -9l-15 11q-55 42 -102 38h-74v-1578h74z" />
    <glyph glyph-name="backslash" unicode="\" horiz-adv-x="683" 
d="M679 -23l-717 1429l42 17l717 -1429z" />
    <glyph glyph-name="bracketright" unicode="]" horiz-adv-x="455" 
d="M149 1344q-12 0 -24 -2q-23 -4 -41 -13l-37 -23l-15 -11l-8 9l50 95h204v-1688h-204l-50 95l8 9l15 -11q41 -31 78 -36q12 -3 24 -2h74v1578h-74zM333 -289v1688h55v-1688h-55z" />
    <glyph glyph-name="asciicircum" unicode="^" horiz-adv-x="1024" 
d="M458 1209q-125 -113 -290 -189l-69 -27v94l78 62q182 157 268 353l14 34h105l13 -33q85 -195 269 -354l78 -62v-94l-68 27q-61 26 -144 80q-94 60 -147 109q-19 16 -53 53v0z" />
    <glyph glyph-name="underscore" unicode="_" horiz-adv-x="1024" 
d="M1024 -407v-105h-1024v105h1024z" />
    <glyph glyph-name="grave" unicode="`" 
d="M201 1721h234l224 -201h-76zM426 1688v0h-104v0l261 -139v0z" />
    <glyph glyph-name="a" unicode="a" horiz-adv-x="1252" 
d="M-3 0l5 4q15 11 24 21q13 13 23.5 28t18.5 36l475 1110v0l-17 44l-6 14l-7 15q-5 6 -15 10l-5 2l45 70l553 -1354h-115l5 3q25 16 25 51l-2 16l-11 28l-179 421v0h-496v0l-180 -425q-6 -12 -9 -27l-3 -19q0 -20 20 -41l7 -7h-156zM793 574v0l-219 557v0l-233 -557v0h452z
M606 1467l563 -1369q21 -56 74 -93l7 -5h-104l-577 1403z" />
    <glyph glyph-name="b" unicode="b" horiz-adv-x="1024" 
d="M103 0l10 8q35 34 37 105v1173q-2 70 -37 105l-10 8h102v-1399h-102zM632 745q145 -25 237 -118q96 -97 96 -243q-1 -174 -134 -286q-107 -90 -304 -97l-54 -1h-213v1399h175l79 -2q69 -3 123 -24q62 -24 113 -71q55 -52 79 -117q18 -51 19 -108q-2 -165 -138 -267
q-43 -34 -85 -50l-26 -10v0zM315 55h162q35 -1 58 1q129 5 199 96q64 85 66 216q-2 137 -73 229q-73 96 -212 105h-65h-135v-647zM683 59v0q115 56 158 115q67 91 69 193q-1 79 -46 161.5t-142 141.5v0q132 -100 133 -294q0 -75 -24 -142q-18 -53 -49 -89q-36 -44 -92 -81z
M315 757h123q119 -2 186 105q56 90 59 213q0 69 -24 129q-49 126 -179 138l-53 2h-112v-587zM656 835v0q137 94 137 240q-2 151 -124 228l-33 18v0l29 -28q20 -20 32 -45q41 -80 41 -181q-2 -113 -46 -183q-11 -18 -36 -49v0z" />
    <glyph glyph-name="c" unicode="c" horiz-adv-x="1403" 
d="M1285 38l-24 3q-8 0 -22 -3l-78 -16l-143 -31q-81 -14 -173 -14q-144 -1 -258 34q-152 44 -270 147q-244 206 -245 539q-1 319 249 534q223 192 564 192q92 0 161 -12q44 -7 167 -43q31 -9 52 -9q17 -1 27 1l19 2l29 -141l-10 -2l-16 15q-111 96 -283 125q-57 9 -115 9
q-285 -1 -482.5 -190.5t-196.5 -471.5q1 -205 109 -372.5t297 -247.5q126 -55 259 -54q75 -1 161 19q158 36 251 125l10 -2l-15 -141zM449 129v0l-55 57q-42 43 -66 76q-147 188 -146 443q-1 206 122 393q40 63 78 101q17 18 57 54v0q-50 -35 -73 -54q-240 -197 -239 -498
q-1 -143 67 -287q45 -100 110 -165q25 -28 76 -66z" />
    <glyph glyph-name="d" unicode="d" horiz-adv-x="1555" 
d="M98 0l10 8q28 24 34 68l3 37v1173l-3 37q-7 55 -44 76h102v-1399h-102zM571 1399h126q356 -8 553 -173q244 -204 244 -517q-2 -203 -120 -385q-122 -189 -302 -263q-147 -62 -329 -61h-124h-364v1399h316zM310 55h264h123q188 0 348 106q152 101 230 283q55 125 54 259
q-1 189 -100 342q-101 157 -270 234q-128 58 -280 63l-156 2h-213v-1289zM1113 140v0l67 51q44 33 75 66q182 188 184 450q0 134 -62 265q-40 84 -100 153q-40 46 -87 82q-27 21 -84 57v0q51 -42 75 -66q38 -40 81 -102q53 -77 78 -141q43 -109 44 -243q-2 -250 -153 -444
q-27 -35 -67 -76z" />
    <glyph glyph-name="e" unicode="e" horiz-adv-x="872" 
d="M101 0l10 8q28 24 34 68l3 37v1173l-3 37q-7 55 -44 76h102v-1399h-102zM258 0v1399h509v-102l-8 13q-20 27 -51 32l-27 2h-368v-643h347q53 -3 77 36l7 11v-149q-22 49 -84 47h-347v-591h394h15q29 1 60 35l12 12l8 -10l-58 -92h-486z" />
    <glyph glyph-name="f" unicode="f" horiz-adv-x="872" 
d="M109 0l10 8q35 34 37 105v1173q-2 70 -37 105l-10 8h102v-1399h-102zM266 1399h551v-102l-8 13q-19 26 -50 32l-28 2h-410v-643h363q46 -2 76 36q2 5 8 11v-149q-22 49 -84 47h-363v-533q-1 -10 4 -37q7 -57 43 -76h-102v1399z" />
    <glyph glyph-name="g" unicode="g" horiz-adv-x="1441" 
d="M1162 22q-76 -22 -142 -31q-88 -14 -177 -14q-140 -1 -254 34q-232 68 -374 256q-140 184 -141 431q-1 319 251 533q226 193 565 192q131 1 330 -55q34 -10 55 -10q9 -2 26 3l17 3l29 -141l-10 -2l-16 15q-52 47 -122 77q-77 33 -161 46q-57 9 -116 9q-285 -1 -483 -188
q-201 -190 -200 -474q1 -285 197 -479t480 -195q79 0 154 18q34 7 66 20l21 8v485q0 9 -4 37q-5 42 -33 67l-10 9h102v-640zM460 123v0l-61 63q-119 125 -165 245q-51 125 -50 275q-1 141 45 251q24 61 78 140q58 86 136 156v0l-74 -55q-111 -87 -176 -223.5t-64 -274.5
q-1 -141 68 -286q45 -100 110 -165q28 -31 75 -66zM1267 676h102l-10 -9q-36 -34 -37 -104v-502l-55 -16v631z" />
    <glyph glyph-name="h" unicode="h" horiz-adv-x="1555" 
d="M106 0l10 8q35 34 37 105v1173q-2 70 -37 105l-10 8h102v-1399h-102zM318 726v-613l3 -37q6 -56 44 -76h-102v1399h102l-10 -8q-29 -25 -34 -68l-3 -37v-505h919v505l-3 37q-7 55 -44 76h102v-1399h-102l10 8q28 24 34 68l3 37v613h-919zM1347 1399h102l-10 -8
q-29 -25 -34 -68l-3 -37v-1173l3 -37q6 -56 44 -76h-102v1399z" />
    <glyph glyph-name="i" unicode="i" horiz-adv-x="493" 
d="M117 0l10 8q26 21 33 68l4 37v1173l-4 37q-9 56 -43 76h102v-1399h-102zM274 1399h102l-9 -8q-25 -22 -34 -68l-4 -37v-1173l4 -37q7 -42 34 -68l9 -8h-102v1399z" />
    <glyph glyph-name="j" unicode="j" horiz-adv-x="645" 
d="M230 -33q19 -1 34 1q168 11 166 215v49v1167h102l-10 -8q-27 -22 -33 -68l-4 -37v-1053v-39q-3 -262 -223 -262q-180 0 -224 185l-5 22h55l3 -14q6 -32 23 -58q35 -64 98 -62q110 -1 108 151v76v1054l-4 37q-9 56 -43 76h102v-1167v-63q-2 -166 -121 -197l-24 -5v0v0z
" />
    <glyph glyph-name="k" unicode="k" horiz-adv-x="1214" 
d="M113 0l10 8q26 21 33 68l4 37v1173l-4 37q-9 56 -43 76h102v-1399h-102zM390 711l680 -711h-144l8 5q16 10 17 24q0 11 -13 23l-592 618v0l-21 -25v-532q1 -71 37 -105l10 -8h-102v1399h102l-10 -8q-36 -35 -37 -105v-565v0l587 607q25 24 25 49q0 7 -1 11l-3 11h149
l-15 -7q-19 -9 -33 -20.5t-26 -24.5l-545 -560v0l672 -713l23 -25q25 -26 47 -40l15 -9h-93l-705 744v0z" />
    <glyph glyph-name="l" unicode="l" horiz-adv-x="872" 
d="M106 0l10 8q35 34 37 105v1173q-2 70 -37 105l-10 8h102v-1399h-102zM263 1399h102l-10 -8q-29 -25 -34 -68l-3 -37v-1231h400q46 -5 102 36l15 11l8 -7l-51 -95h-529v1399z" />
    <glyph glyph-name="m" unicode="m" horiz-adv-x="1783" 
d="M168 144q-3 -35 -3 -71l2 -35q2 -14 8 -27l5 -11h-133l13 14q37 39 47 138l96 1119v0l-28 61q-17 31 -44 55l-17 12h95l648 -1352l-31 -70l-570 1181v0zM884 114v0l-620 1285h92l-4 -11q-3 -9 -3 -20q-1 -16 6 -30l9 -20v0l518 -1072v0l493 1085l-1 9l-8 24q-8 14 -15 24
l-11 11h90l141 -1399h-92l6 8q14 20 15 60q0 18 -1 28l-112 1122v0zM1577 1399l-7 -10q-8 -13 -11 -23l-2 -24q-1 -20 2 -39l125 -1239l2 -15q7 -28 25 -44q2 -1 6 -5h-91l-141 1399h92z" />
    <glyph glyph-name="n" unicode="n" horiz-adv-x="1555" 
d="M200 1261v0v-1175q-1 -14 2 -29q6 -47 45 -57h-149l13 6q33 17 34 50v30v1228v0l-26 33q-13 16 -21 24l-29 22l-9 6h83l1264 -1333v-73zM204 1399h115l-6 -11q-2 -3 -1 -8q0 -23 34 -57l1005 -1049v0v1040q0 14 -2 30q-5 36 -32 49l-13 6h149q-40 -11 -45 -57
q-3 -16 -2 -28l1 -1180z" />
    <glyph glyph-name="o" unicode="o" horiz-adv-x="1669" 
d="M302 1223q226 200 532 200q142 -1 274 -47q144 -51 256 -152q233 -211 234 -515q0 -304 -230 -524q-218 -208 -533 -208q-303 0 -520 194q-129 111 -189 263q-56 136 -56 276q1 307 232 513zM235 719q-1 -285 153 -478q167 -209 446 -209q127 0 223 39q127 50 221 170
q153 191 155 473q0 105 -24 198q-54 202 -207 332q-143 122 -368 124q-150 1 -260 -51t-195 -161q-143 -178 -144 -437zM419 137v0q-95 102 -139.5 171.5t-72.5 181.5t-27 226q0 259 135 433q44 59 127 141v0q-102 -77 -152 -131q-84 -90 -130 -232q-36 -108 -35 -212
q-1 -115 40.5 -233.5t100.5 -192.5q50 -63 153 -152v0zM1252 142v0q101 90 149 150q60 74 100 188q42 119 42 235q-1 167 -84 325q-59 114 -230 246v0q103 -104 147 -170q57 -88 88 -206q24 -95 24 -198q0 -161 -57 -311q-42 -110 -179 -259v0z" />
    <glyph glyph-name="p" unicode="p" horiz-adv-x="1024" 
d="M105 0l10 8q35 34 37 105v1173q-2 70 -37 105l-10 8h102v-1399h-102zM262 1399h201q33 0 69 -2q209 -13 314 -114q127 -121 127 -307q0 -124 -58 -224q-52 -92 -142 -147.5t-184 -54.5q-26 -1 -62 5q-28 3 -43 8l-16 5v11l19 2q47 5 92 21q227 77 229 383
q-1 164 -96 260.5t-254 98.5h-141v-1231l3 -37q6 -56 44 -76h-102v1399zM743 646v0l25 18q66 51 109 141q40 86 41 174q0 203 -169 314l-45 26v0q20 -17 35 -31q49 -46 79 -102q45 -85 45 -196q0 -194 -100 -322z" />
    <glyph glyph-name="q" unicode="q" horiz-adv-x="1669" 
d="M1350 117q137 -152 265 -181l26 -5v-8l-29 -4q-48 -5 -96 -6q-54 -1 -92 7q-62 10 -118 38.5t-94 66.5l-24 25v0l-10 -5q-33 -16 -83 -30q-135 -39 -262 -38q-315 0 -535 207q-232 217 -231 523q-1 304 232 516q221 199 535 200q232 -1 426 -121q204 -126 289 -334
q51 -124 51 -264q0 -155 -56 -274q-63 -133 -189 -265l-17 -16l-10 -7v0zM1442 -38l-33 20q-32 20 -66 51.5t-54 60.5l-10 14v0l-42 -30v0l9 -11q27 -34 69.5 -59.5t92.5 -37.5zM232 719q-1 -130 35.5 -254t119.5 -224q169 -209 447 -209q275 0 444 206q154 189 157 474
q0 108 -24 200q-35 134 -122 244q-166 210 -455 212q-274 -2 -440 -192q-161 -186 -162 -457zM410 147v0q-88 94 -129 157q-49 74 -77 185.5t-27 226.5q0 99 23 194q27 114 87 204q42 62 147 168v0q-169 -129 -230 -244q-81 -154 -82 -323q-1 -160 77 -318q56 -115 211 -250
v0zM1267 158v0q89 77 132 130q61 74 103.5 193.5t42.5 234.5q0 104 -35 211q-45 139 -132 232q-41 43 -136 115v0q138 -140 186 -254q62 -146 62 -308q0 -156 -53 -302q-41 -111 -170 -252v0z" />
    <glyph glyph-name="r" unicode="r" horiz-adv-x="1214" 
d="M324 113q1 -71 37 -105l10 -8h-102v1399h131l93 -2q164 -8 275 -110q120 -110 120 -268q0 -90 -42 -172q-45 -87 -124 -144q-32 -23 -80 -47l-24 -12l16 -26q114 -179 308 -394q127 -143 240 -203q17 -11 78 -33v-11h-152l-39 19q-276 138 -453 365q-84 106 -162 227
l-15 23h-115v-498zM1046 54v0l-101 93q-120 114 -230 258q-67 85 -142 199l-14 21l-62 -8l20 -27q107 -145 163 -215q127 -163 366 -321v0zM324 1344v-678h66q140 2 235.5 104t97.5 243q0 66 -26 130q-67 161 -224 195q-28 6 -54 6h-95zM629 702v0q36 19 53 33
q150 109 151 284q-3 183 -173 279l-43 21v0l39 -33q62 -56 94 -130q28 -66 28 -143q0 -71 -24 -134q-28 -76 -88 -139zM112 0l10 8q26 21 33 68l4 37v1173l-4 37q-9 56 -43 76h102v-1399h-102z" />
    <glyph glyph-name="s" unicode="s" horiz-adv-x="910" 
d="M90 223h8l20 -28q33 -46 73 -77q103 -85 246 -86q104 0 169 76t64 179q-1 112 -82 196l-311 309q-42 40 -78 89q-82 107 -81 209q-1 147 114 241q110 90 257 92q45 -1 100 -12l59 -13q17 -4 36 -4q20 -1 40 6l21 7v-143h-9l-15 19q-73 87 -225 85q-92 -2 -153 -69
t-60 -160q-1 -111 107 -216l329 -336q115 -125 116 -266q1 -159 -110 -253q-107 -90 -263 -91q-108 0 -236 55q-59 25 -82 26l-29 -2q-8 -2 -25 -1v168zM283 1299v0l-30 -24q-80 -69 -80 -172q-1 -63 28 -114q35 -67 96 -128l323 -332q104 -106 105 -236q-2 -94 -57 -199v0
q112 100 112 226q0 116 -108 227l-332 339q-112 112 -112 232q-2 115 55 181v0z" />
    <glyph glyph-name="t" unicode="t" horiz-adv-x="1328" 
d="M540 0l10 8q28 24 34 68l3 37v1225h-469q-41 2 -69 -33l-11 -14h-6l-20 108h630v-1399h-102zM697 0v1399h630l-21 -108h-6l-10 14q-29 35 -69 33h-469v-1225l3 -37q6 -56 44 -76h-102z" />
    <glyph glyph-name="u" unicode="u" horiz-adv-x="1517" 
d="M219 659v-94q1 -137 36 -238q69 -211 301 -284q48 -16 97 -20q26 -4 82 -3v0l-69 11q-188 39 -298 196q-93 132 -94 348v85v739h102l-9 -8q-25 -22 -34 -68l-4 -37v-627v-92q1 -126 33 -220q40 -125 169 -208q125 -80 258 -80q96 0 191 45q100 47 183 128l25 25v1029
q-2 70 -37 105l-10 8h102v-1399h-55v187l-25 -24q-70 -65 -138 -105q-64 -38 -133 -57q-84 -25 -178 -24q-250 -1 -405 168q-145 160 -145 417v97v627l-4 37q-9 56 -43 76h102v-740zM1298 1399h102q-40 -22 -43 -76l-4 -37v-1173q-1 -10 4 -37q7 -57 43 -76h-102v1399z" />
    <glyph glyph-name="v" unicode="v" horiz-adv-x="1328" 
d="M736 -112l-661 1414l-15 28q-31 51 -53 62l-14 7h105l667 -1443zM153 1399h113l-6 -8l-7 -13q-5 -11 -4 -26q-1 -17 4 -30l9 -24l525 -1139v0l417 1163l4 14l3 21q-1 9 -4 18l-9 15l-7 9h125l-11 -11q-19 -19 -36 -55l-11 -25l-465 -1286v0z" />
    <glyph glyph-name="w" unicode="w" horiz-adv-x="1934" 
d="M737 -112l-661 1415l-15 28q-25 43 -53 61l-14 7h105l667 -1443zM1342 -112l-336 720v0l-212 -585v0l-640 1376h113l-6 -8l-7 -13q-5 -11 -4 -25q-1 -17 4 -30l9 -24l525 -1139v0l186 517v0l-293 626q-4 9 -15 28q-25 43 -53 61l-13 7h104l667 -1443zM872 1399l-6 -8
l-7 -13q-5 -11 -4 -23q-1 -16 5 -32l8 -24l185 -400v0l152 424l4 14l3 20q-1 9 -4 18l-9 15l-7 9h125l-11 -11q-12 -12 -19 -23l-17 -31q-10 -19 -11 -25l-174 -481v0l308 -668v0l417 1163l4 14l3 21q0 9 -4 17l-9 15l-6 9h125l-12 -11q-9 -9 -19.5 -24.5t-16.5 -29.5
l-10 -25l-465 -1286v0l-641 1376h113z" />
    <glyph glyph-name="x" unicode="x" horiz-adv-x="1100" 
d="M158 1308q-12 22 -29 44q-22 28 -45 41l-12 6h101l768 -1399h-108l4 7q9 13 7 27q0 12 -5.5 26t-8.5 19l-315 564v0l-352 -550q-21 -32 -19 -55l3 -18q3 -9 9 -14l7 -6h-160l21 14q43 30 90 100l373 585v0zM228 1399h114l-6 -7l-5 -12l-4 -20q-1 -9 7 -26l8 -17l252 -452
v0l292 443q20 31 19 53q-1 9 -4 18l-9 14l-6 6h157l-14 -8q-31 -19 -57 -55l-13 -19l-333 -508v0l395 -718q23 -45 57 -74l20 -17h-102z" />
    <glyph glyph-name="y" unicode="y" horiz-adv-x="1062" 
d="M70 1319q-33 58 -76 80h95l432 -734v0v-665h-102q39 21 43 76l4 37v529v0zM631 113q1 -71 37 -105l10 -8h-102v673v0l-432 726h111l-4 -4l-7 -11l-2 -13q-2 -27 20 -61l340 -566v0l339 590q5 9 10 24l3 18l-1 10q-1 6 -3 9l-3 4h119l-14 -15q-12 -14 -30 -41l-25 -38
l-366 -630v0v-562z" />
    <glyph glyph-name="z" unicode="z" horiz-adv-x="1252" 
d="M1024 1399l-939 -1399h-67l898 1344v0h-762q-67 -1 -116 -36l-14 -11l-7 8l50 94h957zM140 0l939 1399h68l-899 -1344v0h856l32 3q23 3 45 14l35 20q7 3 15 10l8 -7l-52 -95h-1047z" />
    <glyph glyph-name="braceleft" unicode="{" horiz-adv-x="910" 
d="M197 573q208 105 208 255q0 36 -7 87q-11 83 -28 174q-14 71 -13 114q-2 64 27 119t74 91q92 76 245 112l67 14v-43l-44 -15q-183 -73 -185 -264q-1 -36 6 -93l19 -171q7 -56 7 -89q-1 -101 -70 -170q-43 -43 -156 -105l-102 -54v0l102 -55q54 -30 99 -60
q128 -87 127 -218q0 -33 -7 -88l-19 -174q-7 -59 -6 -94q3 -193 185 -265q14 -7 44 -16v-43q-46 7 -67 13q-348 80 -346 326q-1 42 13 115q15 88 28 176q7 50 7 88q1 131 -145 221q-25 15 -63 35l-30 15v48zM596 -382v0l-48 59q-56 73 -56 182q-1 40 4 76l24 213q3 35 4 65
q-1 90 -70 142l-44 31v0q43 -71 44 -139q0 -41 -6 -85q-13 -90 -34 -222q-8 -48 -8 -80q1 -137 119 -206q29 -19 71 -36v0zM599 1445v0q-193 -85 -193 -240q0 -32 8 -79q26 -155 34 -221q6 -49 6 -86q-2 -68 -45 -138v0l45 32q70 55 70 141q-1 30 -4 64l-24 211q-5 40 -4 86
q0 97 56 169z" />
    <glyph glyph-name="bar" unicode="|" horiz-adv-x="1024" 
d="M564 1536v-2048h-105v2048h105z" />
    <glyph glyph-name="braceright" unicode="}" horiz-adv-x="910" 
d="M749 501q-207 -109 -207 -258q-1 -38 7 -88q10 -83 28 -176q13 -73 13 -116q2 -184 -208 -281q-66 -31 -138 -47q-22 -6 -67 -13v43q27 9 40 16q164 78 168 275q0 33 -2 86q-5 141 -7 175q-3 39 -2 70q-1 115 62 184q42 45 165 113l95 52v0l-105 53q-116 60 -161 101
q-77 70 -77 167q-1 37 12 96l31 171q9 61 10 99q-1 86 -61 160q-56 68 -141 98l-48 15v43l71 -14q76 -17 145 -46q215 -90 218 -278q0 -42 -13 -112q-16 -87 -28 -174q-8 -51 -7 -88q-1 -127 145 -219q32 -22 62 -35l31 -14v-43zM320 -397v0q220 95 221 256q-1 33 -8 81
q-28 159 -34 222q-7 49 -6 88q-2 43 13 79q7 21 32 61v0q-27 -17 -45 -31q-70 -52 -70 -142q0 -31 4 -66l24 -215q4 -36 4 -83q0 -82 -38 -140q-25 -38 -97 -110v0zM350 1439v0q58 -64 80 -106q25 -49 25 -128q0 -41 -4 -75l-24 -211q-4 -35 -4 -68q-1 -82 62 -137l62 -50v0
q-54 87 -54 158q-1 39 6 83q12 98 34 221q7 47 8 77q0 139 -127 206q-27 15 -64 30v0z" />
    <glyph glyph-name="asciitilde" unicode="~" horiz-adv-x="2048" 
d="M1659 655q-21 -46 -40 -77q-98 -168 -285 -168q-71 0 -166 22l-161 40l-144 40q-116 32 -183 33q-106 1 -228 -96l-33 -28l-31 33l48 69q39 56 84 91q94 79 218 81q92 -1 220 -37l135 -39q68 -20 146 -38q89 -22 146 -21q107 -3 202 90l38 41z" />
    <glyph glyph-name="nonbreakingspace" unicode="&#xa0;" 
 />
    <glyph glyph-name="exclamdown" unicode="&#xa1;" horiz-adv-x="493" 
d="M277 1098l47 -1041l-51 -26l-26 920l-28 -945l-53 -29l43 1121h68zM332 1267q-42 -40 -72 -86l-18 -28l-19 28l-31 44q-15 20 -40 42l-23 21l23 22q27 26 40 42l31 44l19 27l18 -27q18 -29 32 -44q16 -20 40 -42l23 -21zM300 1289v0l-6 5q-11 8 -26 25t-21 31l-5 9v0
l-5 -9q-7 -14 -22 -31t-25 -25l-6 -5v0l6 -7l24 -25q13 -14 23 -31l5 -9v0l5 9q9 17 23 31l24 25z" />
    <glyph glyph-name="cent" unicode="&#xa2;" 
d="M451 194q-234 51 -311 219q-37 76 -37 172q-1 180 136 297q127 109 314 110q17 0 26 -1l8 -1l33 211h47l-36 -215l7 -1q34 -6 81 -20q14 -6 24 -7l24 -3l28 1h13l23 -111h-6q-110 97 -198 98h-5l-118 -698l13 -3q32 -7 59 -7q170 1 238 95h5l-11 -111l-11 3q-11 4 -17 3
q-20 0 -56 -12q-77 -26 -191 -27q-19 -1 -29 1l-9 1l-37 -211h-46zM461 260l115 683h-6q-53 0 -129 -36q-62 -30 -107 -80q-90 -99 -91 -246q-2 -97 49 -178q56 -88 134 -128zM356 912v0q-42 -24 -60 -39q-145 -114 -144 -280q0 -93 42 -171q50 -92 119 -128l8 -4v0h-1
q-56 15 -111 174q-16 43 -15 110q0 127 59 219q19 31 50 64z" />
    <glyph glyph-name="sterling" unicode="&#xa3;" 
d="M449 559q12 -123 13 -206q-1 -133 -28 -264l-9 -40h397q46 -5 102 36l15 11l8 -7l-51 -89h-520l3 17l20 122q13 101 14 206q0 108 -12 193l-26 184q-10 63 -9 123q-1 131 83 258v0q-131 -128 -132 -278q-1 -56 9 -109l26 -155q11 -72 12 -186q0 -195 -33 -357l-4 -18
h-101l16 13q34 29 46 91q6 30 11 63q15 105 16 203q0 72 -9 155q-3 27 -6 45l-5 26h-104l-27 -2q-34 -4 -49 -22l-8 -9v115l7 -8q24 -28 77 -25h97l-3 18l-7 44q-11 65 -10 121q0 153 109 258.5t265 107.5q50 0 99 -13l60 -16q14 -5 36 -4q22 0 41 7l21 10v-148h-8l-15 22
q-71 89 -226 93q-110 -2 -175 -84q-60 -76 -60 -186q0 -55 10 -142q4 -47 8 -64l4 -24h226q52 -3 77 25l7 8v-115l-8 9q-16 18 -49 22l-27 2h-218z" />
    <glyph glyph-name="currency" unicode="&#xa4;" horiz-adv-x="1024" 
d="M91 1219l136 -137v0l47 33q46 29 111 46.5t129 17.5q62 0 127 -17.5t112 -46.5l47 -33v0l136 137l65 -65l-138 -137v0l24 -33q71 -106 72 -247q-2 -155 -75 -259l-21 -28v0l137 -138l-63 -62l-137 136v0l-41 -27q-115 -71 -246 -71t-245 71l-41 27v0l-137 -136l-63 62
l137 138v0l-21 28q-74 104 -75 260q0 135 73 246l23 33v0l-138 137zM167 732q1 -146 102 -245t244 -100q142 0 244 101t103 245q-1 143 -102.5 244.5t-244.5 102.5q-205 -2 -299 -174q-48 -85 -47 -174z" />
    <glyph glyph-name="yen" unicode="&#xa5;" 
d="M209 566q-43 -2 -64 -34l-7 -13v144l7 -10l18 -23q9 -9 24 -12l22 -2h151v0l-286 487l-22 30q-15 18 -25 27l-16 11h79l363 -618v0v-553h-96l10 7q29 23 34 57l3 30v305h-195q-43 -2 -64 -34l-7 -13v144l7 -12q16 -29 42 -33l22 -2h195v90v0l-15 27v0h-180zM749 616l21 2
q20 4 40 35l7 10v-144l-7 13q-24 32 -61 34h-198v0v-117h198l21 3q24 6 40 33l7 11v-144l-7 14q-6 10 -17 17l-22 14l-22 2h-198v-305l3 -30q8 -39 34 -57l10 -7h-96v564v0l-365 607h99l-5 -5l-7 -9l-2 -12q0 -29 14 -51l289 -478v0l284 500l9 20q3 5 2 12l-1 12l-1 7l-1 4
h96l-11 -13l-27 -34l-19 -30l-276 -478v0h169z" />
    <glyph glyph-name="brokenbar" unicode="&#xa6;" horiz-adv-x="1024" 
d="M459 -460v919h105v-919h-105zM564 1483v-919h-105v919h105z" />
    <glyph glyph-name="section" unicode="&#xa7;" 
d="M748 1296h-8l-15 13q-52 36 -142 49q-39 6 -78 6q-89 0 -142 -40q-69 -51 -67 -127q-1 -66 41 -107q38 -40 108 -74l214 -108q56 -31 103 -69q105 -90 107 -227q1 -147 -123 -239q-11 -9 -33 -22v0q14 -11 24 -20q41 -36 64 -75q31 -56 32 -128q-1 -187 -186 -256
q-84 -33 -177 -32q-124 1 -236 44q-38 13 -57 18l-27 2l-27 -1h-24v134h8l20 -21q72 -70 187 -100q64 -18 130 -17q99 0 164 43q77 51 79 146q-1 71 -43 119q-42 47 -106 78l-199 98q-61 29 -109 71q-55 44 -87.5 104.5t-31.5 130.5q0 144 133 228l36 21v0l-15 12
q-45 37 -75 85q-40 63 -40 132q-1 124 113 197q90 57 228 59q45 -1 103 -8l58 -8l41 -3q18 -1 35 4l20 6v-118zM313 906v0q-32 -20 -52 -35q-94 -67 -95 -181q-1 -110 101 -195q44 -37 95 -63l202 -102q79 -40 126 -90q51 -56 52 -144q1 -64 -39 -121q-11 -16 -26 -33v0
l38 31q62 64 63 149q-1 97 -79 168q-52 45 -121 79l-203 98q-35 16 -83 56q-89 72 -90 184q0 96 72 164zM287 1326v0q-81 -54 -82 -146q-1 -115 108 -192q55 -40 131 -77l174 -90q31 -18 66 -45q92 -73 94 -188q1 -80 -45 -144l-30 -39v0l34 30q78 72 77 173q0 48 -16 84
q-27 61 -86 111q-63 50 -268 150q-67 32 -115 68q-88 65 -88 173q-1 68 46 132v0zM626 408v0q21 16 36 31q60 55 61 148q0 88 -72 145q-59 45 -282 153v0l-28 -21q-84 -68 -84 -157q-2 -90 77 -147q33 -25 73 -45q94 -50 219 -107v0z" />
    <glyph glyph-name="dieresis" unicode="&#xa8;" 
d="M246 1643l45 41q25 24 34 36l15 21l16 -21l34 -36q28 -29 45 -41l26 -17l-26 -18q-47 -37 -79 -77l-15 -21l-16 21q-35 42 -79 77l-27 17zM277 1623v0l12 -8q13 -11 24 -22l18 -21l9 -10v0q7 6 9 10l18 21q7 8 25 22l11 8v0l-11 9l-25 22q-7 5 -18 21l-9 11v0l-9 -11
l-18 -21l-24 -22zM527 1643q46 35 79 77l15 21l16 -21q8 -12 34 -36q28 -29 45 -41q6 -6 27 -17l-27 -18q-45 -35 -79 -77l-15 -21l-16 21q-33 42 -79 77l-26 17zM559 1623v0l12 -8q13 -11 24 -22l18 -21l9 -10v0l9 10l18 21q10 11 24 22l12 8v0l-12 9l-24 22l-18 21l-9 11
v0l-9 -11l-18 -21l-24 -22z" />
    <glyph glyph-name="copyright" unicode="&#xa9;" horiz-adv-x="1024" 
d="M335 1394q140 139 339 139q129 0 241.5 -64.5t176.5 -175.5t64 -240q0 -130 -64.5 -242.5t-175.5 -176.5t-240 -63q-129 -1 -243 63.5t-174 176.5q-65 116 -65 242q1 202 141 341zM267 1052q1 -172 120 -290t288 -118q168 0 287.5 120t120.5 289q-1 109 -54.5 203
t-149.5 148.5t-204 55.5q-169 -1 -288 -119t-120 -289zM896 971l-4 -37q-27 -172 -203 -170q-169 -1 -234 164q-25 58 -24 131q-1 62 17.5 114.5t55.5 96.5q75 93 174 94q49 -1 110 -28q13 -7 22 -6q11 0 23 14l14 18h40v-217l-40 -7l-22 62q-13 31 -29 58q-39 58 -100 59
q-137 -1 -137 -259q-2 -250 152 -247q107 -2 139 127l6 33h40z" />
    <glyph glyph-name="ordfeminine" unicode="&#xaa;" horiz-adv-x="683" 
d="M413 598q-21 -7 -31 -8q-29 -6 -65 -6q-92 -2 -155 47q-71 56 -70 142q-1 101 95 156q29 18 66 28q42 11 85 12q31 -1 57 -6l19 -5v63q0 13 -2 29q-12 111 -123 109q-79 -1 -118 -45v73l18 -3q12 -3 25 -2q11 -2 22 2l22 4q32 6 63 6q81 0 142 -56q54 -49 56 -140v-352
q-2 -30 25 -44l8 -4h-68v404q-3 93 -82 142v0q38 -39 44 -88l3 -52v-406h-36zM414 924l-18 5q-21 5 -42 5q-65 1 -110.5 -43.5t-46.5 -113.5q-1 -30 10 -58q32 -97 131 -100q27 -1 52 8l24 9v288zM230 625v0l-15 14q-53 51 -53 133q0 80 43 125l14 13v0l-15 -8
q-79 -47 -77 -129q1 -92 87 -139z" />
    <glyph glyph-name="guillemotleft" unicode="&#xab;" horiz-adv-x="569" 
d="M182 900h55l-83 -422l83 -422h-55l-199 422zM29 478l139 -306h12l-75 306l75 306h-12zM510 900h55l-84 -422l84 -422h-55l-199 422zM357 478l138 -306h12l-74 306l74 306h-12z" />
    <glyph glyph-name="logicalnot" unicode="&#xac;" 
d="M828 154h-49v397h-660v49h709v-446zM119 502h611v-348h-49v299h-562v49z" />
    <glyph glyph-name="sfthyphen" unicode="&#xad;" horiz-adv-x="493" 
d="M27 673l438 158v-55l-438 -158v55zM27 783l438 158v-55l-438 -158v55z" />
    <glyph glyph-name="registered" unicode="&#xae;" horiz-adv-x="1024" 
d="M335 1394q140 139 339 139q129 0 241.5 -64.5t176.5 -175.5t64 -240q0 -130 -64.5 -242.5t-175.5 -176.5t-240 -63q-129 -1 -243 63.5t-174 176.5q-65 116 -65 242q1 202 141 341zM267 1052q1 -172 120 -290t288 -118q168 0 287.5 120t120.5 289q-1 109 -54.5 203
t-149.5 148.5t-204 55.5q-169 -1 -288 -119t-120 -289zM460 830q59 7 58 83v311q1 64 -49 72l-40 5v40h255q58 0 109 -8q117 -16 117 -131q1 -94 -106 -129l-37 -9v0l15 -9q36 -24 60 -77q8 -19 16 -43l10 -34q4 -17 12 -26q7 -10 21 -10q23 1 30 34l3 24l1 13h40
q0 -13 -1 -21q-8 -129 -110 -128q-34 0 -58 17q-37 24 -60 122q-6 27 -15 62t-23 50q-17 16 -68 17h-15v-138q0 -45 5 -59q9 -22 49 -27l35 -4v-40h-285v40zM625 1095h45q53 0 78 17q38 23 38 89q-3 100 -88 100q-65 1 -71 -45l-2 -37v-124z" />
    <glyph glyph-name="macron" unicode="&#xaf;" 
d="M217 1553v132h542v-132h-542zM726 1652h-476v-66h476v66z" />
    <glyph glyph-name="degree" unicode="&#xb0;" horiz-adv-x="645" 
d="M495.5 1121q72.5 -72 72.5 -171q0 -67 -33 -123q-71 -123 -211 -122q-142 -2 -212 122q-34 56 -33 123q-1 99 71 171t173 73q100 -1 172.5 -73zM323 1143q-52 0 -97 -25t-71 -72t-25 -97q1 -82 56.5 -137.5t137.5 -56.5q80 1 135.5 56.5t57.5 137.5q0 50 -26 97t-71 72
t-97 25z" />
    <glyph glyph-name="plusminus" unicode="&#xb1;" 
d="M101 -147v49h745v-49h-745zM846 -49h-745v49h745v-49zM400 338h-299v49h348v-319h-49v270zM498 68v319h348v-49h-299v-270h-49zM449 755v-319h-348v49h299v270h49zM547 485h299v-49h-348v319h49v-270z" />
    <glyph glyph-name="twosuperior" unicode="&#xb2;" horiz-adv-x="607" 
d="M548 504l-16 -68h-4l-4 10l-5 10l-9 10q-5 2 -12 3h-441l5 14l32 21h454zM124 772q-46 40 -70 81.5t-23 93.5q-1 106 87 178q74 61 192 62q108 -1 180 -52q85 -60 87 -160q1 -100 -112 -199l-83 -71q-72 -62 -79 -66l-81 -65v0h305h12q22 4 27 33h4l-18 -68h-426l150 127
q37 31 71 63q40 37 69 76q56 75 56 170q-3 179 -158 177q-81 -2 -127 -51q-50 -52 -51 -127q-1 -69 68 -130l20 -18l-25 -19l-15 13q-37 31 -58 67q-26 40 -25 88q0 62 30 117l12 20q-78 -55 -77 -156q-1 -76 84 -161l18 -18l-26 -21zM452 1124l12 -15q42 -60 43 -129
q-2 -82 -38 -155l-7 -12l14 13q67 66 66 149q-2 83 -73 137z" />
    <glyph glyph-name="threesuperior" unicode="&#xb3;" horiz-adv-x="607" 
d="M282 898l20 1q90 4 92 115q0 51 -37 97q-33 40 -95 41q-133 0 -136 -128v-9h-35v9q-1 71 61 121q52 41 133 42q79 -1 140 -42q73 -47 74 -121q-2 -98 -101 -133l-18 -6l16 -5q153 -52 153 -205q0 -103 -82 -167q-71 -55 -179 -56q-147 -2 -216 114l-12 21l32 16l13 -22
q61 -95 152 -94q71 0 128.5 51t58.5 122q0 58 -42 95.5t-97 37.5h-28h-114v35h114l28 -1q175 -17 174 -165q-1 -118 -129 -179l-18 -8v0l17 4q69 16 116.5 69t48.5 124q0 79 -62 136q-52 48 -141 54l-24 1h-124v35h119zM407 930v0l2 1q55 29 55 92q-2 65 -67 104l-14 8v0
l5 -5q41 -46 41 -112q0 -20 -5 -44t-13 -38z" />
    <glyph glyph-name="acute" unicode="&#xb4;" 
d="M331 1520l224 201h234l-382 -201h-76zM564 1688v0l-157 -139v0l261 139v0h-104z" />
    <glyph glyph-name="mu" unicode="&#xb5;" horiz-adv-x="1138" 
d="M222 -320l-8 -43q-19 -73 -88 -72q-72 2 -70 72q0 16 4 39l8 43l235 1121h171l-110 -531q-16 -78 -16 -122q3 -108 96 -109q71 -2 137 78q40 46 67 108q21 48 36 98l19 84l81 394h166l-105 -503l-11 -65q-8 -44 -7 -71q1 -41 13 -65q20 -42 49 -40q58 1 117 137l15 35
l62 -26l-7 -20q-29 -83 -52 -133q-54 -119 -161 -120q-64 -2 -101 72q-26 53 -26 127q0 29 4 75q-36 -64 -68 -111q-106 -161 -241 -163q-105 0 -154 100z" />
    <glyph glyph-name="paragraph" unicode="&#xb6;" 
d="M923 1442h-139v-1768h-79v1768h-98v-1768h-79v897l-63 13q-83 17 -153 55q-109 56 -174 166q-62 106 -61 234q-1 112 48 207q110 217 391 263q105 17 219 17h188v-84z" />
    <glyph glyph-name="periodcentered" unicode="&#xb7;" horiz-adv-x="417" 
d="M118 603q22 21 40 43q13 16 32 44l18 27l18 -27q18 -28 32 -44q17 -22 40 -43l23 -21l-23 -20q-21 -20 -40 -43q-15 -18 -32 -44l-18 -27l-18 27q-18 26 -32 44q-20 23 -40 43l-23 20zM150 582v0l6 -5l24 -25q16 -18 23 -31l5 -10v0l5 10q6 11 23 31q11 14 24 25l6 5v0
l-6 6l-24 25q-15 14 -23 31l-5 9v0l-5 -9q-9 -17 -23 -31l-24 -25z" />
    <glyph glyph-name="periodcentered" unicode="&#x2219;" horiz-adv-x="417" 
d="M118 603q22 21 40 43q13 16 32 44l18 27l18 -27q18 -28 32 -44q17 -22 40 -43l23 -21l-23 -20q-21 -20 -40 -43q-15 -18 -32 -44l-18 -27l-18 27q-18 26 -32 44q-20 23 -40 43l-23 20zM150 582v0l6 -5l24 -25q16 -18 23 -31l5 -10v0l5 10q6 11 23 31q11 14 24 25l6 5v0
l-6 6l-24 25q-15 14 -23 31l-5 9v0l-5 -9q-9 -17 -23 -31l-24 -25z" />
    <glyph glyph-name="cedilla" unicode="&#xb8;" 
d="M564 0l-31 -95l9 3q16 5 38 5q57 0 97 -33.5t41 -90.5q-1 -73 -65 -118q-53 -37 -132 -37q-33 0 -57 7l-13 4l-29 77l8 2l12 -10q34 -25 95 -25q123 1 126 93q-3 73 -91 76q-31 1 -55 -23l-9 -10l-45 12l53 163h48z" />
    <glyph glyph-name="onesuperior" unicode="&#xb9;" horiz-adv-x="607" 
d="M219 469l7 5q30 26 26 62v510q4 31 -28 62l-5 5l68 33v-677h-68zM357 1187v-651l2 -22q4 -28 24 -40l7 -5h-68v692z" />
    <glyph glyph-name="ordmasculine" unicode="&#xba;" horiz-adv-x="759" 
d="M87 1004q23 60 74 106q89 83 217 84q129 -1 219 -86q95 -90 94 -215q-1 -100 -58 -179q-59 -83 -149 -113q-50 -18 -105 -17q-129 -3 -221 88.5t-93 220.5q-1 51 22 111zM170 895q-1 -106 49 -184q60 -94 159 -92q74 -2 125.5 51t70.5 124q12 44 12 103q-1 105 -51 176
q-60 85 -156 86q-98 -1 -159 -87q-51 -72 -50 -177zM235 641v0q-21 24 -34 44q-34 44 -50.5 98.5t-15.5 114.5q0 110 65 198l40 50v0q-30 -25 -50 -45q-89 -85 -90 -205q1 -128 90 -215zM518 636v0q136 114 138 262q0 50 -17 96q-22 58 -71 107q-24 23 -57 52v0l45 -57
q65 -88 65 -198q1 -117 -66 -213z" />
    <glyph glyph-name="guillemotright" unicode="&#xbb;" horiz-adv-x="569" 
d="M57 56h-55l84 422l-84 422h55l199 -422zM210 478l-139 306h-12l75 -306l-75 -306h12zM385 56h-55l84 422l-84 422h55l199 -422zM538 478l-139 306h-11l74 -306l-74 -306h11z" />
    <glyph glyph-name="onequarter" unicode="&#xbc;" horiz-adv-x="1403" 
d="M917 1196l44 -18l-605 -1205l-42 24zM966 0l7 5q28 21 26 59v106h-325v35h360v-205h-68zM1069 205h119v-68l-4 9l-7 15l-9 9h-9h-55v-106q-5 -36 25 -58l8 -6h-68v205zM1034 240h-351l351 440v-440zM999 275v301v0l-242 -301v0h242zM1104 718v-443h53l9 3q6 2 10 7l8 13
l4 10v-68h-119v478h35zM343 1187v-651q-6 -42 26 -62l7 -5h-68v692zM205 469l7 5q19 12 24 40l2 22v510l-3 22l-5 21q-5 11 -17 19l-8 5l68 33v-677h-68z" />
    <glyph glyph-name="onehalf" unicode="&#xbd;" horiz-adv-x="1403" 
d="M827 1196l44 -18l-606 -1205l-41 24zM1251 35l-15 -68h-5l-4 10l-5 13q-3 3 -9 7l-12 3h-440l4 14l32 21h454zM827 304q-45 42 -69 82t-23 93q-1 107 87 177q77 62 192 62q105 0 179 -52q86 -60 87 -160q0 -103 -112 -200l-83 -70l-79 -67l-81 -64v0h305q24 -5 35 21
l5 12h4l-19 -68h-425l149 127l72 63q39 37 68 76q56 80 56 170q-3 179 -158 177q-81 -2 -127 -51q-52 -54 -50 -126q-1 -69 67 -130l20 -19l-25 -19q-10 6 -15 13q-84 72 -82 158q0 41 15 82q4 16 14 31l12 21l-19 -17q-58 -57 -57 -138q-1 -83 83 -162l19 -18l-27 -21z
M1155 655l12 -16l19 -30q23 -46 24 -109q-2 -74 -38 -144l-7 -13l14 13q66 70 66 149q1 83 -72 137zM252 1187v-651l2 -22q4 -28 24 -40l7 -5h-68v692zM114 469l7 5q29 21 26 62v510l-3 22q-5 25 -24 40l-6 5l68 33v-677h-68z" />
    <glyph glyph-name="threequarters" unicode="&#xbe;" horiz-adv-x="1403" 
d="M1043 1196l44 -18l-606 -1205l-41 24zM1106 0l7 5q30 18 26 59v106h-325v35h360v-205h-68zM1209 205h119v-68l-4 9l-7 15l-9 9h-9h-55v-106q-5 -36 25 -58l8 -6h-68v205zM1174 240h-351l351 440v-440zM1139 275v301v0l-242 -301v0h242zM1244 718v-443h53l9 3q6 2 10 7
l7 13l5 10v-68h-119v478h35zM284 898l20 1q90 4 92 115q0 51 -37 97q-33 40 -95 41q-133 0 -136 -128v-9h-35v9q-1 71 61 121q52 41 133 42q79 -1 140 -42q73 -47 74 -121q-2 -98 -101 -133l-18 -6l16 -5q153 -52 153 -205q0 -103 -82 -167q-71 -55 -179 -56
q-147 -2 -216 114l-12 21l32 16l13 -22q61 -95 152 -94q71 0 128.5 51t58.5 122q0 58 -42 95.5t-97 37.5h-28h-114v35h114l28 -1q175 -17 174 -165q-1 -118 -129 -179l-18 -8v0l17 4q69 16 116.5 69t48.5 124q0 79 -62 136q-52 48 -141 54l-24 1h-124v35h119zM409 930v0l2 1
q55 29 55 92q-2 65 -67 104l-14 8v0l5 -5q41 -46 41 -112q0 -20 -5 -44t-13 -38z" />
    <glyph glyph-name="questiondown" unicode="&#xbf;" horiz-adv-x="872" 
d="M820 436l4 -17q9 -41 9 -79q-1 -126 -79 -220.5t-199 -125.5q-63 -18 -128 -17q-170 -2 -280 104q-117 113 -117 274q-1 262 323 396l33 13l16 351h48v-363q-125 -69 -175 -145q-39 -58 -60 -126.5t-20 -139.5q-1 -127 61 -216q78 -111 190 -111q140 0 202 157
q20 52 20 97q0 29 -12 80l-4 17l52 25l7 -19q12 -37 12 -79q-2 -131 -91 -216q-30 -29 -71 -63v0q114 63 155 116q62 81 62 182q-1 39 -8 81l-4 20zM273 670v0q-26 -16 -37 -25q-66 -49 -109 -133.5t-42 -165.5q-1 -95 52.5 -181.5t139.5 -128.5q11 -7 36 -16v0
q-23 12 -32 20q-141 100 -141 303q-2 168 98 289q10 13 35 38v0zM517 1267q-22 -21 -38.5 -41t-32.5 -45l-18 -28l-20 28l-32 44q-17 20 -39 42l-23 21l23 22q24 23 39 42l32 44l20 27l18 -27l32 -44q18 -23 39 -42l24 -21zM486 1289v0l-7 5q-10 7 -23.5 23.5t-22.5 32.5
l-6 9v0l-5 -9q-7 -14 -22 -31t-25 -25l-6 -5v0l6 -7l24 -25q7 -8 23 -31l6 -9v0l5 9q8 13 23 31q10 13 23 25z" />
    <glyph glyph-name="Agrave" unicode="&#xc0;" horiz-adv-x="1252" 
d="M-3 0l5 4q15 11 24 21q13 13 23.5 28t18.5 36l475 1110v0l-17 44l-6 14l-7 15q-5 6 -15 10l-5 2l45 70l553 -1354h-115l5 3q25 16 25 51l-2 16l-11 28l-179 421v0h-496v0l-180 -425q-6 -12 -9 -27l-3 -19q0 -20 20 -41l7 -7h-156zM793 574v0l-219 557v0l-233 -557v0h452z
M606 1467l563 -1369q21 -56 74 -93l7 -5h-104l-577 1403zM261 1721h234l224 -201h-76zM486 1688v0h-104v0l261 -139v0z" />
    <glyph glyph-name="Aacute" unicode="&#xc1;" horiz-adv-x="1252" 
d="M-3 0l5 4q15 11 24 21q13 13 23.5 28t18.5 36l475 1110v0l-17 44l-6 14l-7 15q-5 6 -15 10l-5 2l45 70l553 -1354h-115l5 3q25 16 25 51l-2 16l-11 28l-179 421v0h-496v0l-180 -425q-6 -12 -9 -27l-3 -19q0 -20 20 -41l7 -7h-156zM793 574v0l-219 557v0l-233 -557v0h452z
M606 1467l563 -1369q21 -56 74 -93l7 -5h-104l-577 1403zM483 1520l224 201h234l-382 -201h-76zM716 1688v0l-157 -139v0l261 139v0h-104z" />
    <glyph glyph-name="Acircumflex" unicode="&#xc2;" horiz-adv-x="1252" 
d="M-3 0l5 4q15 11 24 21q13 13 23.5 28t18.5 36l475 1110v0l-17 44l-6 14l-7 15q-5 6 -15 10l-5 2l45 70l553 -1354h-115l5 3q25 16 25 51l-2 16l-11 28l-179 421v0h-496v0l-180 -425q-6 -12 -9 -27l-3 -19q0 -20 20 -41l7 -7h-156zM793 574v0l-219 557v0l-233 -557v0h452z
M606 1467l563 -1369q21 -56 74 -93l7 -5h-104l-577 1403zM411 1520h-79l201 201h167l201 -201h-79l-205 101v0zM617 1659v0l214 -113h6l-154 144h-133l-154 -144h6z" />
    <glyph glyph-name="Atilde" unicode="&#xc3;" horiz-adv-x="1252" 
d="M-3 0l5 4q15 11 24 21q13 13 23.5 28t18.5 36l475 1110v0l-17 44l-6 14l-7 15q-5 6 -15 10l-5 2l45 70l553 -1354h-115l5 3q25 16 25 51l-2 16l-11 28l-179 421v0h-496v0l-180 -425q-6 -12 -9 -27l-3 -19q0 -20 20 -41l7 -7h-156zM793 574v0l-219 557v0l-233 -557v0h452z
M606 1467l563 -1369q21 -56 74 -93l7 -5h-104l-577 1403zM914 1659q-72 -142 -140 -139q-18 -1 -35 5l-37 12l-127 51q-23 8 -39 12l-24 2q-54 -1 -97 -32l-22 -19q-7 -6 -16 -20l-33 10q15 27 25 40q92 130 181 134q20 0 38 -5t40 -13q64 -24 115 -48l25 -11q12 -6 26 -5
q56 2 92 52l10 13l33 -8zM874 1638v0l-9 -11q-16 -18 -50 -25l-20 -2q-18 -1 -29 4l-28 11l-134 53l-27 10q-13 4 -29 4q-35 0 -72 -27q-23 -15 -39 -34l-12 -14v0l13 9q8 6 24 10q28 8 52 9q18 0 34 -4l23 -7q69 -24 146 -56l23 -9q16 -7 33 -6q50 -2 95 74z" />
    <glyph glyph-name="Adieresis" unicode="&#xc4;" horiz-adv-x="1252" 
d="M-3 0l5 4q15 11 24 21q13 13 23.5 28t18.5 36l475 1110v0l-17 44l-6 14l-7 15q-5 6 -15 10l-5 2l45 70l553 -1354h-115l5 3q25 16 25 51l-2 16l-11 28l-179 421v0h-496v0l-180 -425q-6 -12 -9 -27l-3 -19q0 -20 20 -41l7 -7h-156zM793 574v0l-219 557v0l-233 -557v0h452z
M606 1467l563 -1369q21 -56 74 -93l7 -5h-104l-577 1403zM398 1643l45 41q25 24 34 36l15 21l16 -21l34 -36q28 -29 45 -41l26 -17l-26 -18q-47 -37 -79 -77l-15 -21l-16 21q-35 42 -79 77l-27 17zM429 1623v0l12 -8q13 -11 24 -22l18 -21l9 -10v0q7 6 9 10l18 21q7 8 25 22
l11 8v0l-11 9l-25 22q-7 5 -18 21l-9 11v0l-9 -11l-18 -21l-24 -22zM679 1643q46 35 79 77l15 21l16 -21q8 -12 34 -36q28 -29 45 -41q6 -6 27 -17l-27 -18q-45 -35 -79 -77l-15 -21l-16 21q-33 42 -79 77l-26 17zM711 1623v0l12 -8q13 -11 24 -22l18 -21l9 -10v0l9 10
l18 21q10 11 24 22l12 8v0l-12 9l-24 22l-18 21l-9 11v0l-9 -11l-18 -21l-24 -22z" />
    <glyph glyph-name="Aring" unicode="&#xc5;" horiz-adv-x="1252" 
d="M-3 0l5 4q15 11 24 21q13 13 23.5 28t18.5 36l475 1110v0l-17 44l-6 14l-7 15q-5 6 -15 10l-5 2l45 70l553 -1354h-115l5 3q25 16 25 51l-2 16l-11 28l-179 421v0h-496v0l-180 -425q-6 -12 -9 -27l-3 -19q0 -20 20 -41l7 -7h-156zM793 574v0l-219 557v0l-233 -557v0h452z
M606 1467l563 -1369q21 -56 74 -93l7 -5h-104l-577 1403zM526 1755.5q41 40.5 100 42.5q56 -2 98.5 -41.5t40.5 -95.5q-2 -59 -41.5 -99t-97.5 -42q-93 2 -129 88l-8 25l-2 23q-2 59 39 99.5zM627 1751q-89 -3 -93 -90q2 -92 92 -94q88 2 92 94q2 36 -27 63q-33 30 -64 27z
" />
    <glyph glyph-name="AE" unicode="&#xc6;" horiz-adv-x="1479" 
d="M863 0h-102l10 8q35 34 37 105v406h-425v0l-237 -403l-18 -34q-9 -19 -9 -31q-1 -22 14 -37l12 -14h-156l22 22q24 26 48 61l36 58l672 1161q17 28 17 54q-1 21 -19 35l-11 8h109v-1399zM808 1261v0l-393 -687v0h393v687zM918 0v1399h508v-102l-8 13q-19 26 -50 32l-28 2
h-367v-643h347q46 -2 76 36q2 5 8 11v-149q-22 49 -84 47h-347v-591h394h14q19 1 35 12l26 23l11 12l8 -10l-57 -92h-486z" />
    <glyph glyph-name="Ccedilla" unicode="&#xc7;" horiz-adv-x="1403" 
d="M810 -89l9 3q16 5 38 5q57 0 97 -33.5t41 -90.5q-1 -73 -65 -118q-53 -37 -132 -37q-33 0 -57 7l-13 4l-28 77l8 2l11 -10q33 -24 97 -25q126 2 124 93q-3 73 -91 76q-44 2 -63 -33l-45 13l44 135l-27 3q-109 11 -170 29q-149 40 -271 147q-244 210 -245 539
q-1 319 249 534q221 190 564 192q92 0 161 -12q48 -8 167 -43q34 -10 53 -10q8 -1 26 2l19 2l29 -141l-10 -2l-16 15q-111 96 -283 125q-57 9 -114 9q-286 -1 -481 -188q-200 -191 -199 -474q1 -205 109 -372.5t297 -247.5q126 -55 259 -54q75 -1 161 19q158 36 251 125
l10 -2l-15 -141l-24 5l-23 3q-8 0 -23 -3l-77 -16q-125 -29 -143 -31q-83 -14 -176 -14h-11zM453 125v0l-59 61q-42 43 -66 76q-147 188 -146 443q-1 139 45 251q48 123 155 242l61 59v0q-45 -32 -77 -58q-118 -96 -179 -229.5t-60 -269.5q0 -118 48 -242q51 -131 129 -210
q25 -28 76 -66z" />
    <glyph glyph-name="Egrave" unicode="&#xc8;" horiz-adv-x="872" 
d="M101 0l10 8q28 24 34 68l3 37v1173l-3 37q-7 55 -44 76h102v-1399h-102zM258 0v1399h509v-102l-8 13q-20 27 -51 32l-27 2h-368v-643h347q53 -3 77 36l7 11v-149q-22 49 -84 47h-347v-591h394h15q29 1 60 35l12 12l8 -10l-58 -92h-486zM164 1721h234l224 -201h-76z
M389 1688v0h-104v0l261 -139v0z" />
    <glyph glyph-name="Eacute" unicode="&#xc9;" horiz-adv-x="872" 
d="M101 0l10 8q28 24 34 68l3 37v1173l-3 37q-7 55 -44 76h102v-1399h-102zM258 0v1399h509v-102l-8 13q-20 27 -51 32l-27 2h-368v-643h347q53 -3 77 36l7 11v-149q-22 49 -84 47h-347v-591h394h15q29 1 60 35l12 12l8 -10l-58 -92h-486zM294 1520l224 201h234l-382 -201
h-76zM527 1688v0l-157 -139v0l261 139v0h-104z" />
    <glyph glyph-name="Ecircumflex" unicode="&#xca;" horiz-adv-x="872" 
d="M101 0l10 8q28 24 34 68l3 37v1173l-3 37q-7 55 -44 76h102v-1399h-102zM258 0v1399h509v-102l-8 13q-20 27 -51 32l-27 2h-368v-643h347q53 -3 77 36l7 11v-149q-22 49 -84 47h-347v-591h394h15q29 1 60 35l12 12l8 -10l-58 -92h-486zM232 1520h-79l201 201h167
l201 -201h-79l-205 101v0zM438 1659v0l214 -113h6l-154 144h-133l-154 -144h6z" />
    <glyph glyph-name="Edieresis" unicode="&#xcb;" horiz-adv-x="872" 
d="M101 0l10 8q28 24 34 68l3 37v1173l-3 37q-7 55 -44 76h102v-1399h-102zM258 0v1399h509v-102l-8 13q-20 27 -51 32l-27 2h-368v-643h347q53 -3 77 36l7 11v-149q-22 49 -84 47h-347v-591h394h15q29 1 60 35l12 12l8 -10l-58 -92h-486zM214 1643l45 41q25 24 34 36l15 21
l16 -21l34 -36q28 -29 45 -41l26 -17l-26 -18q-47 -37 -79 -77l-15 -21l-16 21q-35 42 -79 77l-27 17zM245 1623v0l12 -8q13 -11 24 -22l18 -21l9 -10v0q7 6 9 10l18 21q7 8 25 22l11 8v0l-11 9l-25 22q-7 5 -18 21l-9 11v0l-9 -11l-18 -21l-24 -22zM495 1643q46 35 79 77
l15 21l16 -21q8 -12 34 -36q28 -29 45 -41q6 -6 27 -17l-27 -18q-45 -35 -79 -77l-15 -21l-16 21q-33 42 -79 77l-26 17zM527 1623v0l12 -8q13 -11 24 -22l18 -21l9 -10v0l9 10l18 21q10 11 24 22l12 8v0l-12 9l-24 22l-18 21l-9 11v0l-9 -11l-18 -21l-24 -22z" />
    <glyph glyph-name="Igrave" unicode="&#xcc;" horiz-adv-x="493" 
d="M117 0l10 8q26 21 33 68l4 37v1173l-4 37q-9 56 -43 76h102v-1399h-102zM274 1399h102l-9 -8q-25 -22 -34 -68l-4 -37v-1173l4 -37q7 -42 34 -68l9 -8h-102v1399zM-76 1721h234l224 -201h-76zM149 1688v0h-104v0l261 -139v0z" />
    <glyph glyph-name="Iacute" unicode="&#xcd;" horiz-adv-x="493" 
d="M117 0l10 8q26 21 33 68l4 37v1173l-4 37q-9 56 -43 76h102v-1399h-102zM274 1399h102l-9 -8q-25 -22 -34 -68l-4 -37v-1173l4 -37q7 -42 34 -68l9 -8h-102v1399zM104 1520l224 201h234l-382 -201h-76zM337 1688v0l-157 -139v0l261 139v0h-104z" />
    <glyph glyph-name="Icircumflex" unicode="&#xce;" horiz-adv-x="493" 
d="M117 0l10 8q26 21 33 68l4 37v1173l-4 37q-9 56 -43 76h102v-1399h-102zM274 1399h102l-9 -8q-25 -22 -34 -68l-4 -37v-1173l4 -37q7 -42 34 -68l9 -8h-102v1399zM42 1520h-79l201 201h167l201 -201h-79l-205 101v0zM248 1659v0l214 -113h6l-154 144h-133l-154 -144h6z
" />
    <glyph glyph-name="Idieresis" unicode="&#xcf;" horiz-adv-x="493" 
d="M117 0l10 8q26 21 33 68l4 37v1173l-4 37q-9 56 -43 76h102v-1399h-102zM274 1399h102l-9 -8q-25 -22 -34 -68l-4 -37v-1173l4 -37q7 -42 34 -68l9 -8h-102v1399zM19 1643l45 41q25 24 34 36l15 21l16 -21l34 -36q28 -29 45 -41l26 -17l-26 -18q-47 -37 -79 -77l-15 -21
l-16 21q-35 42 -79 77l-27 17zM50 1623v0l12 -8q13 -11 24 -22l18 -21l9 -10v0q7 6 9 10l18 21q7 8 25 22l11 8v0l-11 9l-25 22q-7 5 -18 21l-9 11v0l-9 -11l-18 -21l-24 -22zM300 1643q46 35 79 77l15 21l16 -21q8 -12 34 -36q28 -29 45 -41q6 -6 27 -17l-27 -18
q-45 -35 -79 -77l-15 -21l-16 21q-33 42 -79 77l-26 17zM332 1623v0l12 -8q13 -11 24 -22l18 -21l9 -10v0l9 10l18 21q10 11 24 22l12 8v0l-12 9l-24 22l-18 21l-9 11v0l-9 -11l-18 -21l-24 -22z" />
    <glyph glyph-name="Eth" unicode="&#xd0;" horiz-adv-x="1593" 
d="M186 1286l-4 37q-9 56 -43 76h102v-1399h-102l10 8q26 21 33 68l4 37v543h-69l-22 -2q-27 -8 -41 -31l-7 -14v149l6 -12q17 -40 64 -35h69v575zM296 1399h316h126q356 -8 553 -173q244 -204 244 -517q-2 -203 -120 -385q-122 -189 -302 -263q-147 -62 -329 -61h-124h-364
v1399zM351 656v-601h264h123q188 0 348 106q152 101 230 283q55 125 54 259q-1 189 -101 344.5t-270 231.5q-128 57 -279 63l-156 2h-213v-633h256l22 2q27 4 42 33l6 12v-149l-6 14q-15 23 -41 31l-23 2h-256zM1154 140v0l67 51q44 33 75 66q182 188 184 450q0 134 -62 265
q-40 84 -100 153q-40 46 -87 82q-27 21 -84 57v0q277 -225 278 -551q-1 -153 -56 -284q-46 -110 -165 -237z" />
    <glyph glyph-name="Ntilde" unicode="&#xd1;" horiz-adv-x="1555" 
d="M200 1261v0v-1175q-1 -14 2 -29q6 -47 45 -57h-149l13 6q33 17 34 50v30v1228v0l-26 33q-13 16 -21 24l-29 22l-9 6h83l1264 -1333v-73zM204 1399h115l-6 -11q-2 -3 -1 -8q0 -23 34 -57l1005 -1049v0v1040q0 14 -2 30q-5 36 -32 49l-13 6h149q-40 -11 -45 -57
q-3 -16 -2 -28l1 -1180zM1116 1659q-72 -142 -140 -139q-18 -1 -35 5l-37 12l-127 51q-23 8 -39 12l-24 2q-54 -1 -97 -32l-22 -19q-7 -6 -16 -20l-33 10q15 27 25 40q92 130 181 134q20 0 38 -5t40 -13q64 -24 115 -48l25 -11q12 -6 26 -5q56 2 92 52l10 13l33 -8z
M1076 1638v0l-9 -11q-16 -18 -50 -25l-20 -2q-18 -1 -29 4l-28 11l-134 53l-27 10q-13 4 -29 4q-35 0 -72 -27q-23 -15 -39 -34l-12 -14v0l13 9q8 6 24 10q28 8 52 9q18 0 34 -4l23 -7q69 -24 146 -56l23 -9q16 -7 33 -6q50 -2 95 74z" />
    <glyph glyph-name="Ograve" unicode="&#xd2;" horiz-adv-x="1669" 
d="M302 1223q226 200 532 200q142 -1 274 -47q144 -51 256 -152q233 -211 234 -515q0 -304 -230 -524q-218 -208 -533 -208q-303 0 -520 194q-129 111 -189 263q-56 136 -56 276q1 307 232 513zM235 719q-1 -285 153 -478q167 -209 446 -209q127 0 223 39q127 50 221 170
q153 191 155 473q0 105 -24 198q-54 202 -207 332q-143 122 -368 124q-150 1 -260 -51t-195 -161q-143 -178 -144 -437zM419 137v0q-95 102 -139.5 171.5t-72.5 181.5t-27 226q0 259 135 433q44 59 127 141v0q-102 -77 -152 -131q-84 -90 -130 -232q-36 -108 -35 -212
q-1 -115 40.5 -233.5t100.5 -192.5q50 -63 153 -152v0zM1252 142v0q101 90 149 150q60 74 100 188q42 119 42 235q-1 167 -84 325q-59 114 -230 246v0q103 -104 147 -170q57 -88 88 -206q24 -95 24 -198q0 -161 -57 -311q-42 -110 -179 -259v0zM562 1721h234l224 -201h-76z
M787 1688v0h-104v0l261 -139v0z" />
    <glyph glyph-name="Oacute" unicode="&#xd3;" horiz-adv-x="1669" 
d="M302 1223q226 200 532 200q142 -1 274 -47q144 -51 256 -152q233 -211 234 -515q0 -304 -230 -524q-218 -208 -533 -208q-303 0 -520 194q-129 111 -189 263q-56 136 -56 276q1 307 232 513zM235 719q-1 -285 153 -478q167 -209 446 -209q127 0 223 39q127 50 221 170
q153 191 155 473q0 105 -24 198q-54 202 -207 332q-143 122 -368 124q-150 1 -260 -51t-195 -161q-143 -178 -144 -437zM419 137v0q-95 102 -139.5 171.5t-72.5 181.5t-27 226q0 259 135 433q44 59 127 141v0q-102 -77 -152 -131q-84 -90 -130 -232q-36 -108 -35 -212
q-1 -115 40.5 -233.5t100.5 -192.5q50 -63 153 -152v0zM1252 142v0q101 90 149 150q60 74 100 188q42 119 42 235q-1 167 -84 325q-59 114 -230 246v0q103 -104 147 -170q57 -88 88 -206q24 -95 24 -198q0 -161 -57 -311q-42 -110 -179 -259v0zM692 1520l224 201h234
l-382 -201h-76zM925 1688v0l-157 -139v0l261 139v0h-104z" />
    <glyph glyph-name="Ocircumflex" unicode="&#xd4;" horiz-adv-x="1669" 
d="M302 1223q226 200 532 200q142 -1 274 -47q144 -51 256 -152q233 -211 234 -515q0 -304 -230 -524q-218 -208 -533 -208q-303 0 -520 194q-129 111 -189 263q-56 136 -56 276q1 307 232 513zM235 719q-1 -285 153 -478q167 -209 446 -209q127 0 223 39q127 50 221 170
q153 191 155 473q0 105 -24 198q-54 202 -207 332q-143 122 -368 124q-150 1 -260 -51t-195 -161q-143 -178 -144 -437zM419 137v0q-95 102 -139.5 171.5t-72.5 181.5t-27 226q0 259 135 433q44 59 127 141v0q-102 -77 -152 -131q-84 -90 -130 -232q-36 -108 -35 -212
q-1 -115 40.5 -233.5t100.5 -192.5q50 -63 153 -152v0zM1252 142v0q101 90 149 150q60 74 100 188q42 119 42 235q-1 167 -84 325q-59 114 -230 246v0q103 -104 147 -170q57 -88 88 -206q24 -95 24 -198q0 -161 -57 -311q-42 -110 -179 -259v0zM630 1520h-79l201 201h167
l201 -201h-79l-205 101v0zM836 1659v0l214 -113h6l-154 144h-133l-154 -144h6z" />
    <glyph glyph-name="Otilde" unicode="&#xd5;" horiz-adv-x="1669" 
d="M302 1223q226 200 532 200q142 -1 274 -47q144 -51 256 -152q233 -211 234 -515q0 -304 -230 -524q-218 -208 -533 -208q-303 0 -520 194q-129 111 -189 263q-56 136 -56 276q1 307 232 513zM235 719q-1 -285 153 -478q167 -209 446 -209q127 0 223 39q127 50 221 170
q153 191 155 473q0 105 -24 198q-54 202 -207 332q-143 122 -368 124q-150 1 -260 -51t-195 -161q-143 -178 -144 -437zM419 137v0q-95 102 -139.5 171.5t-72.5 181.5t-27 226q0 259 135 433q44 59 127 141v0q-102 -77 -152 -131q-84 -90 -130 -232q-36 -108 -35 -212
q-1 -115 40.5 -233.5t100.5 -192.5q50 -63 153 -152v0zM1252 142v0q101 90 149 150q60 74 100 188q42 119 42 235q-1 167 -84 325q-59 114 -230 246v0q103 -104 147 -170q57 -88 88 -206q24 -95 24 -198q0 -161 -57 -311q-42 -110 -179 -259v0zM1133 1659
q-72 -142 -140 -139q-18 -1 -35 5l-37 12l-127 51q-23 8 -39 12l-24 2q-54 -1 -97 -32l-22 -19q-7 -6 -16 -20l-33 10q15 27 25 40q92 130 181 134q20 0 38 -5t40 -13q64 -24 115 -48l25 -11q12 -6 26 -5q56 2 92 52l10 13l33 -8zM1093 1638v0l-9 -11q-16 -18 -50 -25
l-20 -2q-18 -1 -29 4l-28 11l-134 53l-27 10q-13 4 -29 4q-35 0 -72 -27q-23 -15 -39 -34l-12 -14v0l13 9q8 6 24 10q28 8 52 9q18 0 34 -4l23 -7q69 -24 146 -56l23 -9q16 -7 33 -6q50 -2 95 74z" />
    <glyph glyph-name="Odieresis" unicode="&#xd6;" horiz-adv-x="1669" 
d="M302 1223q226 200 532 200q142 -1 274 -47q144 -51 256 -152q233 -211 234 -515q0 -304 -230 -524q-218 -208 -533 -208q-303 0 -520 194q-129 111 -189 263q-56 136 -56 276q1 307 232 513zM235 719q-1 -285 153 -478q167 -209 446 -209q127 0 223 39q127 50 221 170
q153 191 155 473q0 105 -24 198q-54 202 -207 332q-143 122 -368 124q-150 1 -260 -51t-195 -161q-143 -178 -144 -437zM419 137v0q-95 102 -139.5 171.5t-72.5 181.5t-27 226q0 259 135 433q44 59 127 141v0q-102 -77 -152 -131q-84 -90 -130 -232q-36 -108 -35 -212
q-1 -115 40.5 -233.5t100.5 -192.5q50 -63 153 -152v0zM1252 142v0q101 90 149 150q60 74 100 188q42 119 42 235q-1 167 -84 325q-59 114 -230 246v0q103 -104 147 -170q57 -88 88 -206q24 -95 24 -198q0 -161 -57 -311q-42 -110 -179 -259v0zM607 1643l45 41q25 24 34 36
l15 21l16 -21l34 -36q28 -29 45 -41l26 -17l-26 -18q-47 -37 -79 -77l-15 -21l-16 21q-35 42 -79 77l-27 17zM638 1623v0l12 -8q13 -11 24 -22l18 -21l9 -10v0q7 6 9 10l18 21q7 8 25 22l11 8v0l-11 9l-25 22q-7 5 -18 21l-9 11v0l-9 -11l-18 -21l-24 -22zM888 1643
q46 35 79 77l15 21l16 -21q8 -12 34 -36q28 -29 45 -41q6 -6 27 -17l-27 -18q-45 -35 -79 -77l-15 -21l-16 21q-33 42 -79 77l-26 17zM920 1623v0l12 -8q13 -11 24 -22l18 -21l9 -10v0l9 10l18 21q10 11 24 22l12 8v0l-12 9l-24 22l-18 21l-9 11v0l-9 -11l-18 -21l-24 -22z
" />
    <glyph glyph-name="multiply" unicode="&#xd7;" 
d="M190 0l-35 35l318 317v0l318 -317l-35 -35l-283 282v0zM97 659l35 35l317 -318v0l-317 -317l-35 34l283 283v0zM850 93l-35 -34l-317 317v0l317 318l35 -35l-283 -283v0zM756 752l35 -35l-318 -316v0l-318 316l35 35l283 -282v0z" />
    <glyph glyph-name="Oslash" unicode="&#xd8;" horiz-adv-x="1669" 
d="M1385 1205q105 -90 162 -237q51 -131 51 -262q-1 -308 -233 -524q-221 -205 -536 -205q-155 0 -267 47q-100 41 -235 136l-10 7v0l-191 -190h-70l225 225v0l-7 7q-204 204 -204 498q-1 299 230 513q217 202 529 203q132 -1 264 -43q147 -47 236 -126l8 -8v0l179 177h73
l-214 -210v0zM1301 1139v0l-910 -899v0l5 -8q133 -200 441 -200q277 1 441 209q153 191 155 475q-2 226 -124 411zM424 131v0q-92 98 -135 164q-53 78 -81 196q-29 110 -28 225q0 259 135 433q42 55 123 136v0q-100 -76 -148 -127q-84 -90 -130 -232q-36 -108 -35 -212
q-1 -115 41 -234.5t102 -194.5q52 -63 156 -154v0zM1248 137v0q100 88 150 150q62 76 103.5 193t41.5 233q-1 166 -82 324q-60 114 -228 244v0q144 -146 191 -256q64 -148 64 -313q0 -163 -58 -314q-43 -112 -182 -261v0zM361 280v0l908 899v0l-5 6q-154 181 -431 183
q-148 0 -258 -52q-244 -115 -317 -404q-24 -90 -23 -191q0 -130 36 -258t90 -183v0z" />
    <glyph glyph-name="Ugrave" unicode="&#xd9;" horiz-adv-x="1517" 
d="M219 659v-94q1 -137 36 -238q69 -211 301 -284q48 -16 97 -20q26 -4 82 -3v0l-69 11q-188 39 -298 196q-93 132 -94 348v85v739h102l-9 -8q-25 -22 -34 -68l-4 -37v-627v-92q1 -126 33 -220q40 -125 169 -208q125 -80 258 -80q96 0 191 45q100 47 183 128l25 25v1029
q-2 70 -37 105l-10 8h102v-1399h-55v187l-25 -24q-70 -65 -138 -105q-64 -38 -133 -57q-84 -25 -178 -24q-250 -1 -405 168q-145 160 -145 417v97v627l-4 37q-9 56 -43 76h102v-740zM1298 1399h102q-40 -22 -43 -76l-4 -37v-1173q-1 -10 4 -37q7 -57 43 -76h-102v1399z
M486 1721h234l224 -201h-76zM711 1688v0h-104v0l261 -139v0z" />
    <glyph glyph-name="Uacute" unicode="&#xda;" horiz-adv-x="1517" 
d="M219 659v-94q1 -137 36 -238q69 -211 301 -284q48 -16 97 -20q26 -4 82 -3v0l-69 11q-188 39 -298 196q-93 132 -94 348v85v739h102l-9 -8q-25 -22 -34 -68l-4 -37v-627v-92q1 -126 33 -220q40 -125 169 -208q125 -80 258 -80q96 0 191 45q100 47 183 128l25 25v1029
q-2 70 -37 105l-10 8h102v-1399h-55v187l-25 -24q-70 -65 -138 -105q-64 -38 -133 -57q-84 -25 -178 -24q-250 -1 -405 168q-145 160 -145 417v97v627l-4 37q-9 56 -43 76h102v-740zM1298 1399h102q-40 -22 -43 -76l-4 -37v-1173q-1 -10 4 -37q7 -57 43 -76h-102v1399z
M616 1520l224 201h234l-382 -201h-76zM849 1688v0l-157 -139v0l261 139v0h-104z" />
    <glyph glyph-name="Ucircumflex" unicode="&#xdb;" horiz-adv-x="1517" 
d="M219 659v-94q1 -137 36 -238q69 -211 301 -284q48 -16 97 -20q26 -4 82 -3v0l-69 11q-188 39 -298 196q-93 132 -94 348v85v739h102l-9 -8q-25 -22 -34 -68l-4 -37v-627v-92q1 -126 33 -220q40 -125 169 -208q125 -80 258 -80q96 0 191 45q100 47 183 128l25 25v1029
q-2 70 -37 105l-10 8h102v-1399h-55v187l-25 -24q-70 -65 -138 -105q-64 -38 -133 -57q-84 -25 -178 -24q-250 -1 -405 168q-145 160 -145 417v97v627l-4 37q-9 56 -43 76h102v-740zM1298 1399h102q-40 -22 -43 -76l-4 -37v-1173q-1 -10 4 -37q7 -57 43 -76h-102v1399z
M560 1520h-79l201 201h167l201 -201h-79l-205 101v0zM766 1659v0l214 -113h6l-154 144h-133l-154 -144h6z" />
    <glyph glyph-name="Udieresis" unicode="&#xdc;" horiz-adv-x="1517" 
d="M219 659v-94q1 -137 36 -238q69 -211 301 -284q48 -16 97 -20q26 -4 82 -3v0l-69 11q-188 39 -298 196q-93 132 -94 348v85v739h102l-9 -8q-25 -22 -34 -68l-4 -37v-627v-92q1 -126 33 -220q40 -125 169 -208q125 -80 258 -80q96 0 191 45q100 47 183 128l25 25v1029
q-2 70 -37 105l-10 8h102v-1399h-55v187l-25 -24q-70 -65 -138 -105q-64 -38 -133 -57q-84 -25 -178 -24q-250 -1 -405 168q-145 160 -145 417v97v627l-4 37q-9 56 -43 76h102v-740zM1298 1399h102q-40 -22 -43 -76l-4 -37v-1173q-1 -10 4 -37q7 -57 43 -76h-102v1399z
M531 1643l45 41q25 24 34 36l15 21l16 -21l34 -36q28 -29 45 -41l26 -17l-26 -18q-47 -37 -79 -77l-15 -21l-16 21q-35 42 -79 77l-27 17zM562 1623v0l12 -8q13 -11 24 -22l18 -21l9 -10v0q7 6 9 10l18 21q7 8 25 22l11 8v0l-11 9l-25 22q-7 5 -18 21l-9 11v0l-9 -11
l-18 -21l-24 -22zM812 1643q46 35 79 77l15 21l16 -21q8 -12 34 -36q28 -29 45 -41q6 -6 27 -17l-27 -18q-45 -35 -79 -77l-15 -21l-16 21q-33 42 -79 77l-26 17zM844 1623v0l12 -8q13 -11 24 -22l18 -21l9 -10v0l9 10l18 21q10 11 24 22l12 8v0l-12 9l-24 22l-18 21l-9 11
v0l-9 -11l-18 -21l-24 -22z" />
    <glyph glyph-name="Yacute" unicode="&#xdd;" horiz-adv-x="1062" 
d="M70 1319q-33 58 -76 80h95l432 -734v0v-665h-102q39 21 43 76l4 37v529v0zM631 113q1 -71 37 -105l10 -8h-102v673v0l-432 726h111l-4 -4l-7 -11l-2 -13q-2 -27 20 -61l340 -566v0l339 590q5 9 10 24l3 18l-1 10q-1 6 -3 9l-3 4h119l-14 -15q-12 -14 -30 -41l-25 -38
l-366 -630v0v-562zM434 1520l224 201h234l-382 -201h-76zM667 1688v0l-157 -139v0l261 139v0h-104z" />
    <glyph glyph-name="Thorn" unicode="&#xde;" horiz-adv-x="1024" 
d="M105 0l10 8q35 34 37 105v1173q-2 70 -37 105l-10 8h102v-1399h-102zM458 1180q38 0 70 -1q201 -6 315 -113q130 -123 130 -306q-1 -168 -109 -294q-116 -136 -277 -135q-28 -1 -60 5q-26 2 -43 9l-16 5v10l20 2q316 37 320 403q-2 165 -94 259q-98 99 -257 101h-140
v-1012l3 -37q6 -56 44 -76h-102v1399h102l-10 -8q-29 -25 -34 -68l-3 -37v-106h141zM737 417v0l33 24q147 115 148 315q1 205 -167 314l-55 33v0l44 -38q48 -44 78 -101q45 -86 45 -200q0 -99 -33 -192q-28 -79 -67 -126q-8 -11 -26 -29v0z" />
    <glyph glyph-name="germandbls" unicode="&#xdf;" horiz-adv-x="1707" 
d="M90 223h8l20 -28q33 -46 73 -77q103 -85 246 -86q104 0 169 76t64 179q-1 112 -82 196l-311 309q-42 40 -78 89q-82 107 -81 209q-1 147 114 241q110 90 257 92q45 -1 100 -12l59 -13q17 -4 36 -4q20 -1 40 6l21 7v-143h-9l-15 19q-73 87 -225 85q-92 -2 -153 -69
t-60 -160q-1 -111 107 -216l329 -336q115 -125 116 -266q1 -159 -110 -253q-107 -90 -263 -91q-108 0 -236 55q-59 25 -82 26l-29 -2q-8 -2 -25 -1v168zM283 1299v0l-30 -24q-80 -69 -80 -172q-1 -63 28 -114q35 -67 96 -128l323 -332q104 -106 105 -236q-2 -94 -57 -199v0
q112 100 112 226q0 116 -108 227l-332 339q-112 112 -112 232q-2 115 55 181v0zM886 223h8l20 -28q33 -46 73 -77q103 -85 246 -86q104 0 169 76t64 179q-1 112 -82 196l-311 309q-42 40 -78 89q-82 107 -81 209q-1 147 114 241q110 90 257 92q45 -1 100 -12l59 -13
q17 -4 36 -4q20 -1 40 6l21 7v-143h-9l-15 19q-73 87 -225 85q-92 -2 -153 -69t-60 -160q-1 -111 107 -216l329 -336q115 -125 116 -266q1 -159 -110 -253q-107 -90 -263 -91q-108 0 -236 55q-59 25 -82 26l-29 -2q-8 -2 -25 -1v168zM1079 1299v0l-30 -24q-80 -69 -80 -172
q-1 -63 28 -114q35 -67 96 -128l323 -332q104 -106 105 -236q-2 -94 -57 -199v0q112 100 112 226q0 116 -108 227l-332 339q-112 112 -112 232q-2 115 55 181v0z" />
    <glyph glyph-name="agrave" unicode="&#xe0;" horiz-adv-x="1252" 
d="M-3 0l5 4q15 11 24 21q13 13 23.5 28t18.5 36l475 1110v0l-17 44l-6 14l-7 15q-5 6 -15 10l-5 2l45 70l553 -1354h-115l5 3q25 16 25 51l-2 16l-11 28l-179 421v0h-496v0l-180 -425q-6 -12 -9 -27l-3 -19q0 -20 20 -41l7 -7h-156zM793 574v0l-219 557v0l-233 -557v0h452z
M606 1467l563 -1369q21 -56 74 -93l7 -5h-104l-577 1403zM261 1721h234l224 -201h-76zM486 1688v0h-104v0l261 -139v0z" />
    <glyph glyph-name="aacute" unicode="&#xe1;" horiz-adv-x="1252" 
d="M-3 0l5 4q15 11 24 21q13 13 23.5 28t18.5 36l475 1110v0l-17 44l-6 14l-7 15q-5 6 -15 10l-5 2l45 70l553 -1354h-115l5 3q25 16 25 51l-2 16l-11 28l-179 421v0h-496v0l-180 -425q-6 -12 -9 -27l-3 -19q0 -20 20 -41l7 -7h-156zM793 574v0l-219 557v0l-233 -557v0h452z
M606 1467l563 -1369q21 -56 74 -93l7 -5h-104l-577 1403zM483 1520l224 201h234l-382 -201h-76zM716 1688v0l-157 -139v0l261 139v0h-104z" />
    <glyph glyph-name="acircumflex" unicode="&#xe2;" horiz-adv-x="1252" 
d="M-3 0l5 4q15 11 24 21q13 13 23.5 28t18.5 36l475 1110v0l-17 44l-6 14l-7 15q-5 6 -15 10l-5 2l45 70l553 -1354h-115l5 3q25 16 25 51l-2 16l-11 28l-179 421v0h-496v0l-180 -425q-6 -12 -9 -27l-3 -19q0 -20 20 -41l7 -7h-156zM793 574v0l-219 557v0l-233 -557v0h452z
M606 1467l563 -1369q21 -56 74 -93l7 -5h-104l-577 1403zM411 1520h-79l201 201h167l201 -201h-79l-205 101v0zM617 1659v0l214 -113h6l-154 144h-133l-154 -144h6z" />
    <glyph glyph-name="atilde" unicode="&#xe3;" horiz-adv-x="1252" 
d="M-3 0l5 4q15 11 24 21q13 13 23.5 28t18.5 36l475 1110v0l-17 44l-6 14l-7 15q-5 6 -15 10l-5 2l45 70l553 -1354h-115l5 3q25 16 25 51l-2 16l-11 28l-179 421v0h-496v0l-180 -425q-6 -12 -9 -27l-3 -19q0 -20 20 -41l7 -7h-156zM793 574v0l-219 557v0l-233 -557v0h452z
M606 1467l563 -1369q21 -56 74 -93l7 -5h-104l-577 1403zM914 1659q-72 -142 -140 -139q-18 -1 -35 5l-37 12l-127 51q-23 8 -39 12l-24 2q-54 -1 -97 -32l-22 -19q-7 -6 -16 -20l-33 10q15 27 25 40q92 130 181 134q20 0 38 -5t40 -13q64 -24 115 -48l25 -11q12 -6 26 -5
q56 2 92 52l10 13l33 -8zM874 1638v0l-9 -11q-16 -18 -50 -25l-20 -2q-18 -1 -29 4l-28 11l-134 53l-27 10q-13 4 -29 4q-35 0 -72 -27q-23 -15 -39 -34l-12 -14v0l13 9q8 6 24 10q28 8 52 9q18 0 34 -4l23 -7q69 -24 146 -56l23 -9q16 -7 33 -6q50 -2 95 74z" />
    <glyph glyph-name="adieresis" unicode="&#xe4;" horiz-adv-x="1252" 
d="M-3 0l5 4q15 11 24 21q13 13 23.5 28t18.5 36l475 1110v0l-17 44l-6 14l-7 15q-5 6 -15 10l-5 2l45 70l553 -1354h-115l5 3q25 16 25 51l-2 16l-11 28l-179 421v0h-496v0l-180 -425q-6 -12 -9 -27l-3 -19q0 -20 20 -41l7 -7h-156zM793 574v0l-219 557v0l-233 -557v0h452z
M606 1467l563 -1369q21 -56 74 -93l7 -5h-104l-577 1403zM398 1643l45 41q25 24 34 36l15 21l16 -21l34 -36q28 -29 45 -41l26 -17l-26 -18q-47 -37 -79 -77l-15 -21l-16 21q-35 42 -79 77l-27 17zM429 1623v0l12 -8q13 -11 24 -22l18 -21l9 -10v0q7 6 9 10l18 21q7 8 25 22
l11 8v0l-11 9l-25 22q-7 5 -18 21l-9 11v0l-9 -11l-18 -21l-24 -22zM679 1643q46 35 79 77l15 21l16 -21q8 -12 34 -36q28 -29 45 -41q6 -6 27 -17l-27 -18q-45 -35 -79 -77l-15 -21l-16 21q-33 42 -79 77l-26 17zM711 1623v0l12 -8q13 -11 24 -22l18 -21l9 -10v0l9 10
l18 21q10 11 24 22l12 8v0l-12 9l-24 22l-18 21l-9 11v0l-9 -11l-18 -21l-24 -22z" />
    <glyph glyph-name="aring" unicode="&#xe5;" horiz-adv-x="1252" 
d="M-3 0l5 4q15 11 24 21q13 13 23.5 28t18.5 36l475 1110v0l-17 44l-6 14l-7 15q-5 6 -15 10l-5 2l45 70l553 -1354h-115l5 3q25 16 25 51l-2 16l-11 28l-179 421v0h-496v0l-180 -425q-6 -12 -9 -27l-3 -19q0 -20 20 -41l7 -7h-156zM793 574v0l-219 557v0l-233 -557v0h452z
M606 1467l563 -1369q21 -56 74 -93l7 -5h-104l-577 1403zM526 1755.5q41 40.5 100 42.5q56 -2 98.5 -41.5t40.5 -95.5q-2 -59 -41.5 -99t-97.5 -42q-93 2 -129 88l-8 25l-2 23q-2 59 39 99.5zM627 1751q-89 -3 -93 -90q2 -92 92 -94q88 2 92 94q2 36 -27 63q-33 30 -64 27z
" />
    <glyph glyph-name="ae" unicode="&#xe6;" horiz-adv-x="1479" 
d="M863 0h-102l10 8q35 34 37 105v406h-425v0l-237 -403l-18 -34q-9 -19 -9 -31q-1 -22 14 -37l12 -14h-156l22 22q24 26 48 61l36 58l672 1161q17 28 17 54q-1 21 -19 35l-11 8h109v-1399zM808 1261v0l-393 -687v0h393v687zM918 0v1399h508v-102l-8 13q-19 26 -50 32l-28 2
h-367v-643h347q46 -2 76 36q2 5 8 11v-149q-22 49 -84 47h-347v-591h394h14q19 1 35 12l26 23l11 12l8 -10l-57 -92h-486z" />
    <glyph glyph-name="ccedilla" unicode="&#xe7;" horiz-adv-x="1403" 
d="M810 -89l9 3q16 5 38 5q57 0 97 -33.5t41 -90.5q-1 -73 -65 -118q-53 -37 -132 -37q-33 0 -57 7l-13 4l-28 77l8 2l11 -10q33 -24 97 -25q126 2 124 93q-3 73 -91 76q-44 2 -63 -33l-45 13l44 135l-27 3q-109 11 -170 29q-149 40 -271 147q-244 210 -245 539
q-1 319 249 534q221 190 564 192q92 0 161 -12q48 -8 167 -43q34 -10 53 -10q8 -1 26 2l19 2l29 -141l-10 -2l-16 15q-111 96 -283 125q-57 9 -114 9q-286 -1 -481 -188q-200 -191 -199 -474q1 -205 109 -372.5t297 -247.5q126 -55 259 -54q75 -1 161 19q158 36 251 125
l10 -2l-15 -141l-24 5l-23 3q-8 0 -23 -3l-77 -16q-125 -29 -143 -31q-83 -14 -176 -14h-11zM453 125v0l-59 61q-42 43 -66 76q-147 188 -146 443q-1 139 45 251q48 123 155 242l61 59v0q-45 -32 -77 -58q-118 -96 -179 -229.5t-60 -269.5q0 -118 48 -242q51 -131 129 -210
q25 -28 76 -66z" />
    <glyph glyph-name="egrave" unicode="&#xe8;" horiz-adv-x="872" 
d="M101 0l10 8q28 24 34 68l3 37v1173l-3 37q-7 55 -44 76h102v-1399h-102zM258 0v1399h509v-102l-8 13q-20 27 -51 32l-27 2h-368v-643h347q53 -3 77 36l7 11v-149q-22 49 -84 47h-347v-591h394h15q29 1 60 35l12 12l8 -10l-58 -92h-486zM164 1721h234l224 -201h-76z
M389 1688v0h-104v0l261 -139v0z" />
    <glyph glyph-name="eacute" unicode="&#xe9;" horiz-adv-x="872" 
d="M101 0l10 8q28 24 34 68l3 37v1173l-3 37q-7 55 -44 76h102v-1399h-102zM258 0v1399h509v-102l-8 13q-20 27 -51 32l-27 2h-368v-643h347q53 -3 77 36l7 11v-149q-22 49 -84 47h-347v-591h394h15q29 1 60 35l12 12l8 -10l-58 -92h-486zM294 1520l224 201h234l-382 -201
h-76zM527 1688v0l-157 -139v0l261 139v0h-104z" />
    <glyph glyph-name="ecircumflex" unicode="&#xea;" horiz-adv-x="872" 
d="M101 0l10 8q28 24 34 68l3 37v1173l-3 37q-7 55 -44 76h102v-1399h-102zM258 0v1399h509v-102l-8 13q-20 27 -51 32l-27 2h-368v-643h347q53 -3 77 36l7 11v-149q-22 49 -84 47h-347v-591h394h15q29 1 60 35l12 12l8 -10l-58 -92h-486zM232 1520h-79l201 201h167
l201 -201h-79l-205 101v0zM438 1659v0l214 -113h6l-154 144h-133l-154 -144h6z" />
    <glyph glyph-name="edieresis" unicode="&#xeb;" horiz-adv-x="872" 
d="M101 0l10 8q28 24 34 68l3 37v1173l-3 37q-7 55 -44 76h102v-1399h-102zM258 0v1399h509v-102l-8 13q-20 27 -51 32l-27 2h-368v-643h347q53 -3 77 36l7 11v-149q-22 49 -84 47h-347v-591h394h15q29 1 60 35l12 12l8 -10l-58 -92h-486zM214 1643l45 41q25 24 34 36l15 21
l16 -21l34 -36q28 -29 45 -41l26 -17l-26 -18q-47 -37 -79 -77l-15 -21l-16 21q-35 42 -79 77l-27 17zM245 1623v0l12 -8q13 -11 24 -22l18 -21l9 -10v0q7 6 9 10l18 21q7 8 25 22l11 8v0l-11 9l-25 22q-7 5 -18 21l-9 11v0l-9 -11l-18 -21l-24 -22zM495 1643q46 35 79 77
l15 21l16 -21q8 -12 34 -36q28 -29 45 -41q6 -6 27 -17l-27 -18q-45 -35 -79 -77l-15 -21l-16 21q-33 42 -79 77l-26 17zM527 1623v0l12 -8q13 -11 24 -22l18 -21l9 -10v0l9 10l18 21q10 11 24 22l12 8v0l-12 9l-24 22l-18 21l-9 11v0l-9 -11l-18 -21l-24 -22z" />
    <glyph glyph-name="igrave" unicode="&#xec;" horiz-adv-x="493" 
d="M117 0l10 8q26 21 33 68l4 37v1173l-4 37q-9 56 -43 76h102v-1399h-102zM274 1399h102l-9 -8q-25 -22 -34 -68l-4 -37v-1173l4 -37q7 -42 34 -68l9 -8h-102v1399zM-76 1721h234l224 -201h-76zM149 1688v0h-104v0l261 -139v0z" />
    <glyph glyph-name="iacute" unicode="&#xed;" horiz-adv-x="493" 
d="M117 0l10 8q26 21 33 68l4 37v1173l-4 37q-9 56 -43 76h102v-1399h-102zM274 1399h102l-9 -8q-25 -22 -34 -68l-4 -37v-1173l4 -37q7 -42 34 -68l9 -8h-102v1399zM104 1520l224 201h234l-382 -201h-76zM337 1688v0l-157 -139v0l261 139v0h-104z" />
    <glyph glyph-name="icircumflex" unicode="&#xee;" horiz-adv-x="493" 
d="M117 0l10 8q26 21 33 68l4 37v1173l-4 37q-9 56 -43 76h102v-1399h-102zM274 1399h102l-9 -8q-25 -22 -34 -68l-4 -37v-1173l4 -37q7 -42 34 -68l9 -8h-102v1399zM42 1520h-79l201 201h167l201 -201h-79l-205 101v0zM248 1659v0l214 -113h6l-154 144h-133l-154 -144h6z
" />
    <glyph glyph-name="idieresis" unicode="&#xef;" horiz-adv-x="493" 
d="M117 0l10 8q26 21 33 68l4 37v1173l-4 37q-9 56 -43 76h102v-1399h-102zM274 1399h102l-9 -8q-25 -22 -34 -68l-4 -37v-1173l4 -37q7 -42 34 -68l9 -8h-102v1399zM19 1643l45 41q25 24 34 36l15 21l16 -21l34 -36q28 -29 45 -41l26 -17l-26 -18q-47 -37 -79 -77l-15 -21
l-16 21q-35 42 -79 77l-27 17zM50 1623v0l12 -8q13 -11 24 -22l18 -21l9 -10v0q7 6 9 10l18 21q7 8 25 22l11 8v0l-11 9l-25 22q-7 5 -18 21l-9 11v0l-9 -11l-18 -21l-24 -22zM300 1643q46 35 79 77l15 21l16 -21q8 -12 34 -36q28 -29 45 -41q6 -6 27 -17l-27 -18
q-45 -35 -79 -77l-15 -21l-16 21q-33 42 -79 77l-26 17zM332 1623v0l12 -8q13 -11 24 -22l18 -21l9 -10v0l9 10l18 21q10 11 24 22l12 8v0l-12 9l-24 22l-18 21l-9 11v0l-9 -11l-18 -21l-24 -22z" />
    <glyph glyph-name="eth" unicode="&#xf0;" horiz-adv-x="1555" 
d="M186 1286l-4 37q-9 56 -43 76h102v-1399h-102l10 8q26 21 33 68l4 37v543h-69l-22 -2q-27 -8 -41 -31l-7 -14v149l6 -12q17 -40 64 -35h69v575zM296 1399h316h126q356 -8 553 -173q244 -204 244 -517q-2 -203 -120 -385q-122 -189 -302 -263q-147 -62 -329 -61h-124h-364
v1399zM351 656v-601h264h123q188 0 348 106q152 101 230 283q55 125 54 259q-1 189 -101 344.5t-270 231.5q-128 57 -279 63l-156 2h-213v-633h256l22 2q27 4 42 33l6 12v-149l-6 14q-15 23 -41 31l-23 2h-256zM1154 140v0l67 51q44 33 75 66q182 188 184 450q0 134 -62 265
q-40 84 -100 153q-40 46 -87 82q-27 21 -84 57v0q277 -225 278 -551q-1 -153 -56 -284q-46 -110 -165 -237z" />
    <glyph glyph-name="ntilde" unicode="&#xf1;" horiz-adv-x="1555" 
d="M200 1261v0v-1175q-1 -14 2 -29q6 -47 45 -57h-149l13 6q33 17 34 50v30v1228v0l-26 33q-13 16 -21 24l-29 22l-9 6h83l1264 -1333v-73zM204 1399h115l-6 -11q-2 -3 -1 -8q0 -23 34 -57l1005 -1049v0v1040q0 14 -2 30q-5 36 -32 49l-13 6h149q-40 -11 -45 -57
q-3 -16 -2 -28l1 -1180zM1116 1659q-72 -142 -140 -139q-18 -1 -35 5l-37 12l-127 51q-23 8 -39 12l-24 2q-54 -1 -97 -32l-22 -19q-7 -6 -16 -20l-33 10q15 27 25 40q92 130 181 134q20 0 38 -5t40 -13q64 -24 115 -48l25 -11q12 -6 26 -5q56 2 92 52l10 13l33 -8z
M1076 1638v0l-9 -11q-16 -18 -50 -25l-20 -2q-18 -1 -29 4l-28 11l-134 53l-27 10q-13 4 -29 4q-35 0 -72 -27q-23 -15 -39 -34l-12 -14v0l13 9q8 6 24 10q28 8 52 9q18 0 34 -4l23 -7q69 -24 146 -56l23 -9q16 -7 33 -6q50 -2 95 74z" />
    <glyph glyph-name="ograve" unicode="&#xf2;" horiz-adv-x="1669" 
d="M302 1223q226 200 532 200q142 -1 274 -47q144 -51 256 -152q233 -211 234 -515q0 -304 -230 -524q-218 -208 -533 -208q-303 0 -520 194q-129 111 -189 263q-56 136 -56 276q1 307 232 513zM235 719q-1 -285 153 -478q167 -209 446 -209q127 0 223 39q127 50 221 170
q153 191 155 473q0 105 -24 198q-54 202 -207 332q-143 122 -368 124q-150 1 -260 -51t-195 -161q-143 -178 -144 -437zM419 137v0q-95 102 -139.5 171.5t-72.5 181.5t-27 226q0 259 135 433q44 59 127 141v0q-102 -77 -152 -131q-84 -90 -130 -232q-36 -108 -35 -212
q-1 -115 40.5 -233.5t100.5 -192.5q50 -63 153 -152v0zM1252 142v0q101 90 149 150q60 74 100 188q42 119 42 235q-1 167 -84 325q-59 114 -230 246v0q103 -104 147 -170q57 -88 88 -206q24 -95 24 -198q0 -161 -57 -311q-42 -110 -179 -259v0zM562 1721h234l224 -201h-76z
M787 1688v0h-104v0l261 -139v0z" />
    <glyph glyph-name="oacute" unicode="&#xf3;" horiz-adv-x="1669" 
d="M302 1223q226 200 532 200q142 -1 274 -47q144 -51 256 -152q233 -211 234 -515q0 -304 -230 -524q-218 -208 -533 -208q-303 0 -520 194q-129 111 -189 263q-56 136 -56 276q1 307 232 513zM235 719q-1 -285 153 -478q167 -209 446 -209q127 0 223 39q127 50 221 170
q153 191 155 473q0 105 -24 198q-54 202 -207 332q-143 122 -368 124q-150 1 -260 -51t-195 -161q-143 -178 -144 -437zM419 137v0q-95 102 -139.5 171.5t-72.5 181.5t-27 226q0 259 135 433q44 59 127 141v0q-102 -77 -152 -131q-84 -90 -130 -232q-36 -108 -35 -212
q-1 -115 40.5 -233.5t100.5 -192.5q50 -63 153 -152v0zM1252 142v0q101 90 149 150q60 74 100 188q42 119 42 235q-1 167 -84 325q-59 114 -230 246v0q103 -104 147 -170q57 -88 88 -206q24 -95 24 -198q0 -161 -57 -311q-42 -110 -179 -259v0zM692 1520l224 201h234
l-382 -201h-76zM925 1688v0l-157 -139v0l261 139v0h-104z" />
    <glyph glyph-name="ocircumflex" unicode="&#xf4;" horiz-adv-x="1669" 
d="M302 1223q226 200 532 200q142 -1 274 -47q144 -51 256 -152q233 -211 234 -515q0 -304 -230 -524q-218 -208 -533 -208q-303 0 -520 194q-129 111 -189 263q-56 136 -56 276q1 307 232 513zM235 719q-1 -285 153 -478q167 -209 446 -209q127 0 223 39q127 50 221 170
q153 191 155 473q0 105 -24 198q-54 202 -207 332q-143 122 -368 124q-150 1 -260 -51t-195 -161q-143 -178 -144 -437zM419 137v0q-95 102 -139.5 171.5t-72.5 181.5t-27 226q0 259 135 433q44 59 127 141v0q-102 -77 -152 -131q-84 -90 -130 -232q-36 -108 -35 -212
q-1 -115 40.5 -233.5t100.5 -192.5q50 -63 153 -152v0zM1252 142v0q101 90 149 150q60 74 100 188q42 119 42 235q-1 167 -84 325q-59 114 -230 246v0q103 -104 147 -170q57 -88 88 -206q24 -95 24 -198q0 -161 -57 -311q-42 -110 -179 -259v0zM630 1520h-79l201 201h167
l201 -201h-79l-205 101v0zM836 1659v0l214 -113h6l-154 144h-133l-154 -144h6z" />
    <glyph glyph-name="otilde" unicode="&#xf5;" horiz-adv-x="1669" 
d="M302 1223q226 200 532 200q142 -1 274 -47q144 -51 256 -152q233 -211 234 -515q0 -304 -230 -524q-218 -208 -533 -208q-303 0 -520 194q-129 111 -189 263q-56 136 -56 276q1 307 232 513zM235 719q-1 -285 153 -478q167 -209 446 -209q127 0 223 39q127 50 221 170
q153 191 155 473q0 105 -24 198q-54 202 -207 332q-143 122 -368 124q-150 1 -260 -51t-195 -161q-143 -178 -144 -437zM419 137v0q-95 102 -139.5 171.5t-72.5 181.5t-27 226q0 259 135 433q44 59 127 141v0q-102 -77 -152 -131q-84 -90 -130 -232q-36 -108 -35 -212
q-1 -115 40.5 -233.5t100.5 -192.5q50 -63 153 -152v0zM1252 142v0q101 90 149 150q60 74 100 188q42 119 42 235q-1 167 -84 325q-59 114 -230 246v0q103 -104 147 -170q57 -88 88 -206q24 -95 24 -198q0 -161 -57 -311q-42 -110 -179 -259v0zM1133 1659
q-72 -142 -140 -139q-18 -1 -35 5l-37 12l-127 51q-23 8 -39 12l-24 2q-54 -1 -97 -32l-22 -19q-7 -6 -16 -20l-33 10q15 27 25 40q92 130 181 134q20 0 38 -5t40 -13q64 -24 115 -48l25 -11q12 -6 26 -5q56 2 92 52l10 13l33 -8zM1093 1638v0l-9 -11q-16 -18 -50 -25
l-20 -2q-18 -1 -29 4l-28 11l-134 53l-27 10q-13 4 -29 4q-35 0 -72 -27q-23 -15 -39 -34l-12 -14v0l13 9q8 6 24 10q28 8 52 9q18 0 34 -4l23 -7q69 -24 146 -56l23 -9q16 -7 33 -6q50 -2 95 74z" />
    <glyph glyph-name="odieresis" unicode="&#xf6;" horiz-adv-x="1669" 
d="M302 1223q226 200 532 200q142 -1 274 -47q144 -51 256 -152q233 -211 234 -515q0 -304 -230 -524q-218 -208 -533 -208q-303 0 -520 194q-129 111 -189 263q-56 136 -56 276q1 307 232 513zM235 719q-1 -285 153 -478q167 -209 446 -209q127 0 223 39q127 50 221 170
q153 191 155 473q0 105 -24 198q-54 202 -207 332q-143 122 -368 124q-150 1 -260 -51t-195 -161q-143 -178 -144 -437zM419 137v0q-95 102 -139.5 171.5t-72.5 181.5t-27 226q0 259 135 433q44 59 127 141v0q-102 -77 -152 -131q-84 -90 -130 -232q-36 -108 -35 -212
q-1 -115 40.5 -233.5t100.5 -192.5q50 -63 153 -152v0zM1252 142v0q101 90 149 150q60 74 100 188q42 119 42 235q-1 167 -84 325q-59 114 -230 246v0q103 -104 147 -170q57 -88 88 -206q24 -95 24 -198q0 -161 -57 -311q-42 -110 -179 -259v0zM607 1643l45 41q25 24 34 36
l15 21l16 -21l34 -36q28 -29 45 -41l26 -17l-26 -18q-47 -37 -79 -77l-15 -21l-16 21q-35 42 -79 77l-27 17zM638 1623v0l12 -8q13 -11 24 -22l18 -21l9 -10v0q7 6 9 10l18 21q7 8 25 22l11 8v0l-11 9l-25 22q-7 5 -18 21l-9 11v0l-9 -11l-18 -21l-24 -22zM888 1643
q46 35 79 77l15 21l16 -21q8 -12 34 -36q28 -29 45 -41q6 -6 27 -17l-27 -18q-45 -35 -79 -77l-15 -21l-16 21q-33 42 -79 77l-26 17zM920 1623v0l12 -8q13 -11 24 -22l18 -21l9 -10v0l9 10l18 21q10 11 24 22l12 8v0l-12 9l-24 22l-18 21l-9 11v0l-9 -11l-18 -21l-24 -22z
" />
    <glyph glyph-name="divide" unicode="&#xf7;" 
d="M397 172q14 10 36 32l28 30l12 16l13 -16l27 -30q19 -20 37 -32l22 -14l-22 -15q-40 -31 -64 -62l-12 -17l-13 17l-28 30l-36 32l-22 14zM431 155v0l8 -5l16 -15l12 -14l6 -7l6 7l12 14l17 15l7 6v0l-7 5l-17 15l-12 14l-6 7v0l-6 -7l-12 -14l-16 -15zM122 309v49h703
v-49h-703zM825 407h-703v49h703v-49zM397 622q14 10 36 32l28 30l12 16l13 -16l27 -30q19 -20 37 -32l22 -14l-22 -15q-19 -14 -37 -32l-27 -30l-12 -16l-13 16l-28 30q-22 21 -36 32l-22 14zM431 605v0l8 -5l16 -15l12 -14l6 -7v0l6 7l12 14l17 15l7 6v0l-7 5l-17 15
l-12 14l-6 7v0l-6 -7l-12 -14l-16 -15z" />
    <glyph glyph-name="oslash" unicode="&#xf8;" horiz-adv-x="1669" 
d="M1385 1205q105 -90 162 -237q51 -131 51 -262q-1 -308 -233 -524q-221 -205 -536 -205q-155 0 -267 47q-100 41 -235 136l-10 7v0l-191 -190h-70l225 225v0l-7 7q-204 204 -204 498q-1 299 230 513q217 202 529 203q132 -1 264 -43q147 -47 236 -126l8 -8v0l179 177h73
l-214 -210v0zM1301 1139v0l-910 -899v0l5 -8q133 -200 441 -200q277 1 441 209q153 191 155 475q-2 226 -124 411zM424 131v0q-92 98 -135 164q-53 78 -81 196q-29 110 -28 225q0 259 135 433q42 55 123 136v0q-100 -76 -148 -127q-84 -90 -130 -232q-36 -108 -35 -212
q-1 -115 41 -234.5t102 -194.5q52 -63 156 -154v0zM1248 137v0q100 88 150 150q62 76 103.5 193t41.5 233q-1 166 -82 324q-60 114 -228 244v0q144 -146 191 -256q64 -148 64 -313q0 -163 -58 -314q-43 -112 -182 -261v0zM361 280v0l908 899v0l-5 6q-154 181 -431 183
q-148 0 -258 -52q-244 -115 -317 -404q-24 -90 -23 -191q0 -130 36 -258t90 -183v0z" />
    <glyph glyph-name="ugrave" unicode="&#xf9;" horiz-adv-x="1517" 
d="M219 659v-94q1 -137 36 -238q69 -211 301 -284q48 -16 97 -20q26 -4 82 -3v0l-69 11q-188 39 -298 196q-93 132 -94 348v85v739h102l-9 -8q-25 -22 -34 -68l-4 -37v-627v-92q1 -126 33 -220q40 -125 169 -208q125 -80 258 -80q96 0 191 45q100 47 183 128l25 25v1029
q-2 70 -37 105l-10 8h102v-1399h-55v187l-25 -24q-70 -65 -138 -105q-64 -38 -133 -57q-84 -25 -178 -24q-250 -1 -405 168q-145 160 -145 417v97v627l-4 37q-9 56 -43 76h102v-740zM1298 1399h102q-40 -22 -43 -76l-4 -37v-1173q-1 -10 4 -37q7 -57 43 -76h-102v1399z
M486 1721h234l224 -201h-76zM711 1688v0h-104v0l261 -139v0z" />
    <glyph glyph-name="uacute" unicode="&#xfa;" horiz-adv-x="1517" 
d="M219 659v-94q1 -137 36 -238q69 -211 301 -284q48 -16 97 -20q26 -4 82 -3v0l-69 11q-188 39 -298 196q-93 132 -94 348v85v739h102l-9 -8q-25 -22 -34 -68l-4 -37v-627v-92q1 -126 33 -220q40 -125 169 -208q125 -80 258 -80q96 0 191 45q100 47 183 128l25 25v1029
q-2 70 -37 105l-10 8h102v-1399h-55v187l-25 -24q-70 -65 -138 -105q-64 -38 -133 -57q-84 -25 -178 -24q-250 -1 -405 168q-145 160 -145 417v97v627l-4 37q-9 56 -43 76h102v-740zM1298 1399h102q-40 -22 -43 -76l-4 -37v-1173q-1 -10 4 -37q7 -57 43 -76h-102v1399z
M616 1520l224 201h234l-382 -201h-76zM849 1688v0l-157 -139v0l261 139v0h-104z" />
    <glyph glyph-name="ucircumflex" unicode="&#xfb;" horiz-adv-x="1517" 
d="M219 659v-94q1 -137 36 -238q69 -211 301 -284q48 -16 97 -20q26 -4 82 -3v0l-69 11q-188 39 -298 196q-93 132 -94 348v85v739h102l-9 -8q-25 -22 -34 -68l-4 -37v-627v-92q1 -126 33 -220q40 -125 169 -208q125 -80 258 -80q96 0 191 45q100 47 183 128l25 25v1029
q-2 70 -37 105l-10 8h102v-1399h-55v187l-25 -24q-70 -65 -138 -105q-64 -38 -133 -57q-84 -25 -178 -24q-250 -1 -405 168q-145 160 -145 417v97v627l-4 37q-9 56 -43 76h102v-740zM1298 1399h102q-40 -22 -43 -76l-4 -37v-1173q-1 -10 4 -37q7 -57 43 -76h-102v1399z
M560 1520h-79l201 201h167l201 -201h-79l-205 101v0zM766 1659v0l214 -113h6l-154 144h-133l-154 -144h6z" />
    <glyph glyph-name="udieresis" unicode="&#xfc;" horiz-adv-x="1517" 
d="M219 659v-94q1 -137 36 -238q69 -211 301 -284q48 -16 97 -20q26 -4 82 -3v0l-69 11q-188 39 -298 196q-93 132 -94 348v85v739h102l-9 -8q-25 -22 -34 -68l-4 -37v-627v-92q1 -126 33 -220q40 -125 169 -208q125 -80 258 -80q96 0 191 45q100 47 183 128l25 25v1029
q-2 70 -37 105l-10 8h102v-1399h-55v187l-25 -24q-70 -65 -138 -105q-64 -38 -133 -57q-84 -25 -178 -24q-250 -1 -405 168q-145 160 -145 417v97v627l-4 37q-9 56 -43 76h102v-740zM1298 1399h102q-40 -22 -43 -76l-4 -37v-1173q-1 -10 4 -37q7 -57 43 -76h-102v1399z
M531 1643l45 41q25 24 34 36l15 21l16 -21l34 -36q28 -29 45 -41l26 -17l-26 -18q-47 -37 -79 -77l-15 -21l-16 21q-35 42 -79 77l-27 17zM562 1623v0l12 -8q13 -11 24 -22l18 -21l9 -10v0q7 6 9 10l18 21q7 8 25 22l11 8v0l-11 9l-25 22q-7 5 -18 21l-9 11v0l-9 -11
l-18 -21l-24 -22zM812 1643q46 35 79 77l15 21l16 -21q8 -12 34 -36q28 -29 45 -41q6 -6 27 -17l-27 -18q-45 -35 -79 -77l-15 -21l-16 21q-33 42 -79 77l-26 17zM844 1623v0l12 -8q13 -11 24 -22l18 -21l9 -10v0l9 10l18 21q10 11 24 22l12 8v0l-12 9l-24 22l-18 21l-9 11
v0l-9 -11l-18 -21l-24 -22z" />
    <glyph glyph-name="yacute" unicode="&#xfd;" horiz-adv-x="1062" 
d="M70 1319q-33 58 -76 80h95l432 -734v0v-665h-102q39 21 43 76l4 37v529v0zM631 113q1 -71 37 -105l10 -8h-102v673v0l-432 726h111l-4 -4l-7 -11l-2 -13q-2 -27 20 -61l340 -566v0l339 590q5 9 10 24l3 18l-1 10q-1 6 -3 9l-3 4h119l-14 -15q-12 -14 -30 -41l-25 -38
l-366 -630v0v-562zM434 1520l224 201h234l-382 -201h-76zM667 1688v0l-157 -139v0l261 139v0h-104z" />
    <glyph glyph-name="thorn" unicode="&#xfe;" horiz-adv-x="1024" 
d="M105 0l10 8q35 34 37 105v1173q-2 70 -37 105l-10 8h102v-1399h-102zM458 1180q38 0 70 -1q201 -6 315 -113q130 -123 130 -306q-1 -168 -109 -294q-116 -136 -277 -135q-28 -1 -60 5q-26 2 -43 9l-16 5v10l20 2q316 37 320 403q-2 165 -94 259q-98 99 -257 101h-140
v-1012l3 -37q6 -56 44 -76h-102v1399h102l-10 -8q-29 -25 -34 -68l-3 -37v-106h141zM737 417v0l33 24q147 115 148 315q1 205 -167 314l-55 33v0l44 -38q48 -44 78 -101q45 -86 45 -200q0 -99 -33 -192q-28 -79 -67 -126q-8 -11 -26 -29v0z" />
    <glyph glyph-name="ydieresis" unicode="&#xff;" horiz-adv-x="1062" 
d="M70 1319q-33 58 -76 80h95l432 -734v0v-665h-102q39 21 43 76l4 37v529v0zM631 113q1 -71 37 -105l10 -8h-102v673v0l-432 726h111l-4 -4l-7 -11l-2 -13q-2 -27 20 -61l340 -566v0l339 590q5 9 10 24l3 18l-1 10q-1 6 -3 9l-3 4h119l-14 -15q-12 -14 -30 -41l-25 -38
l-366 -630v0v-562zM344 1643l45 41q25 24 34 36l15 21l16 -21l34 -36q28 -29 45 -41l26 -17l-26 -18q-47 -37 -79 -77l-15 -21l-16 21q-35 42 -79 77l-27 17zM375 1623v0l12 -8q13 -11 24 -22l18 -21l9 -10v0q7 6 9 10l18 21q7 8 25 22l11 8v0l-11 9l-25 22q-7 5 -18 21
l-9 11v0l-9 -11l-18 -21l-24 -22zM625 1643q46 35 79 77l15 21l16 -21q8 -12 34 -36q28 -29 45 -41q6 -6 27 -17l-27 -18q-45 -35 -79 -77l-15 -21l-16 21q-33 42 -79 77l-26 17zM657 1623v0l12 -8q13 -11 24 -22l18 -21l9 -10v0l9 10l18 21q10 11 24 22l12 8v0l-12 9
l-24 22l-18 21l-9 11v0l-9 -11l-18 -21l-24 -22z" />
    <glyph glyph-name="Cacute" unicode="&#x106;" horiz-adv-x="1403" 
d="M1285 38l-24 3q-8 0 -22 -3l-78 -16l-143 -31q-81 -14 -173 -14q-144 -1 -258 34q-152 44 -270 147q-244 206 -245 539q-1 319 249 534q223 192 564 192q92 0 161 -12q44 -7 167 -43q31 -9 52 -9q17 -1 27 1l19 2l29 -141l-10 -2l-16 15q-111 96 -283 125q-57 9 -115 9
q-285 -1 -482.5 -190.5t-196.5 -471.5q1 -205 109 -372.5t297 -247.5q126 -55 259 -54q75 -1 161 19q158 36 251 125l10 -2l-15 -141zM449 129v0l-55 57q-42 43 -66 76q-147 188 -146 443q-1 206 122 393q40 63 78 101q17 18 57 54v0q-50 -35 -73 -54q-240 -197 -239 -498
q-1 -143 67 -287q45 -100 110 -165q25 -28 76 -66zM731 1520l224 201h234l-382 -201h-76zM964 1688v0l-157 -139v0l261 139v0h-104z" />
    <glyph glyph-name="cacute" unicode="&#x107;" horiz-adv-x="1403" 
d="M1285 38l-24 3q-8 0 -22 -3l-78 -16l-143 -31q-81 -14 -173 -14q-144 -1 -258 34q-152 44 -270 147q-244 206 -245 539q-1 319 249 534q223 192 564 192q92 0 161 -12q44 -7 167 -43q31 -9 52 -9q17 -1 27 1l19 2l29 -141l-10 -2l-16 15q-111 96 -283 125q-57 9 -115 9
q-285 -1 -482.5 -190.5t-196.5 -471.5q1 -205 109 -372.5t297 -247.5q126 -55 259 -54q75 -1 161 19q158 36 251 125l10 -2l-15 -141zM449 129v0l-55 57q-42 43 -66 76q-147 188 -146 443q-1 206 122 393q40 63 78 101q17 18 57 54v0q-50 -35 -73 -54q-240 -197 -239 -498
q-1 -143 67 -287q45 -100 110 -165q25 -28 76 -66zM731 1520l224 201h234l-382 -201h-76zM964 1688v0l-157 -139v0l261 139v0h-104z" />
    <glyph glyph-name="Ccaron" unicode="&#x10c;" horiz-adv-x="1403" 
d="M1285 38l-24 3q-8 0 -22 -3l-78 -16l-143 -31q-81 -14 -173 -14q-144 -1 -258 34q-152 44 -270 147q-244 206 -245 539q-1 319 249 534q223 192 564 192q92 0 161 -12q44 -7 167 -43q31 -9 52 -9q17 -1 27 1l19 2l29 -141l-10 -2l-16 15q-111 96 -283 125q-57 9 -115 9
q-285 -1 -482.5 -190.5t-196.5 -471.5q1 -205 109 -372.5t297 -247.5q126 -55 259 -54q75 -1 161 19q158 36 251 125l10 -2l-15 -141zM449 129v0l-55 57q-42 43 -66 76q-147 188 -146 443q-1 206 122 393q40 63 78 101q17 18 57 54v0q-50 -35 -73 -54q-240 -197 -239 -498
q-1 -143 67 -287q45 -100 110 -165q25 -28 76 -66zM1064 1721h79l-201 -201h-167l-201 201h79l205 -101v0zM858 1581v0l-214 113h-6l154 -143h132l155 143h-6z" />
    <glyph glyph-name="ccaron" unicode="&#x10d;" horiz-adv-x="1403" 
d="M1285 38l-24 3q-8 0 -22 -3l-78 -16l-143 -31q-81 -14 -173 -14q-144 -1 -258 34q-152 44 -270 147q-244 206 -245 539q-1 319 249 534q223 192 564 192q92 0 161 -12q44 -7 167 -43q31 -9 52 -9q17 -1 27 1l19 2l29 -141l-10 -2l-16 15q-111 96 -283 125q-57 9 -115 9
q-285 -1 -482.5 -190.5t-196.5 -471.5q1 -205 109 -372.5t297 -247.5q126 -55 259 -54q75 -1 161 19q158 36 251 125l10 -2l-15 -141zM449 129v0l-55 57q-42 43 -66 76q-147 188 -146 443q-1 206 122 393q40 63 78 101q17 18 57 54v0q-50 -35 -73 -54q-240 -197 -239 -498
q-1 -143 67 -287q45 -100 110 -165q25 -28 76 -66zM1064 1721h79l-201 -201h-167l-201 201h79l205 -101v0zM858 1581v0l-214 113h-6l154 -143h132l155 143h-6z" />
    <glyph glyph-name="dcroat" unicode="&#x111;" horiz-adv-x="1555" 
d="M186 1286l-4 37q-9 56 -43 76h102v-1399h-102l10 8q26 21 33 68l4 37v543h-69l-22 -2q-27 -8 -41 -31l-7 -14v149l6 -12q17 -40 64 -35h69v575zM296 1399h316h126q356 -8 553 -173q244 -204 244 -517q-2 -203 -120 -385q-122 -189 -302 -263q-147 -62 -329 -61h-124h-364
v1399zM351 656v-601h264h123q188 0 348 106q152 101 230 283q55 125 54 259q-1 189 -101 344.5t-270 231.5q-128 57 -279 63l-156 2h-213v-633h256l22 2q27 4 42 33l6 12v-149l-6 14q-15 23 -41 31l-23 2h-256zM1154 140v0l67 51q44 33 75 66q182 188 184 450q0 134 -62 265
q-40 84 -100 153q-40 46 -87 82q-27 21 -84 57v0q277 -225 278 -551q-1 -153 -56 -284q-46 -110 -165 -237z" />
    <glyph glyph-name="Gbreve" unicode="&#x11e;" horiz-adv-x="1441" 
d="M1162 22q-76 -22 -142 -31q-88 -14 -177 -14q-140 -1 -254 34q-232 68 -374 256q-140 184 -141 431q-1 319 251 533q226 193 565 192q131 1 330 -55q34 -10 55 -10q9 -2 26 3l17 3l29 -141l-10 -2l-16 15q-52 47 -122 77q-77 33 -161 46q-57 9 -116 9q-285 -1 -483 -188
q-201 -190 -200 -474q1 -285 197 -479t480 -195q79 0 154 18q34 7 66 20l21 8v485q0 9 -4 37q-5 42 -33 67l-10 9h102v-640zM460 123v0l-61 63q-119 125 -165 245q-51 125 -50 275q-1 141 45 251q24 61 78 140q58 86 136 156v0l-74 -55q-111 -87 -176 -223.5t-64 -274.5
q-1 -141 68 -286q45 -100 110 -165q28 -31 75 -66zM1267 676h102l-10 -9q-36 -34 -37 -104v-502l-55 -16v631zM1096 1722l-6 -20q-26 -80 -94 -131t-154 -51q-79 -1 -148 45.5t-100 136.5l-7 20h70l5 -10q21 -42 82 -64q45 -18 98 -17q50 -1 97 17q53 18 82 64l5 10h70z
M641 1693h-12l9 -20q64 -122 203 -120q65 -1 119.5 31t84.5 89l9 20h-11l-9 -12q-14 -19 -33 -32q-23 -19 -54 -30q-52 -22 -105 -21q-118 -1 -192 83z" />
    <glyph glyph-name="gbreve" unicode="&#x11f;" horiz-adv-x="1441" 
d="M1162 22q-76 -22 -142 -31q-88 -14 -177 -14q-140 -1 -254 34q-232 68 -374 256q-140 184 -141 431q-1 319 251 533q226 193 565 192q131 1 330 -55q34 -10 55 -10q9 -2 26 3l17 3l29 -141l-10 -2l-16 15q-52 47 -122 77q-77 33 -161 46q-57 9 -116 9q-285 -1 -483 -188
q-201 -190 -200 -474q1 -285 197 -479t480 -195q79 0 154 18q34 7 66 20l21 8v485q0 9 -4 37q-5 42 -33 67l-10 9h102v-640zM460 123v0l-61 63q-119 125 -165 245q-51 125 -50 275q-1 141 45 251q24 61 78 140q58 86 136 156v0l-74 -55q-111 -87 -176 -223.5t-64 -274.5
q-1 -141 68 -286q45 -100 110 -165q28 -31 75 -66zM1267 676h102l-10 -9q-36 -34 -37 -104v-502l-55 -16v631zM1096 1722l-6 -20q-26 -80 -94 -131t-154 -51q-79 -1 -148 45.5t-100 136.5l-7 20h70l5 -10q21 -42 82 -64q45 -18 98 -17q50 -1 97 17q53 18 82 64l5 10h70z
M641 1693h-12l9 -20q64 -122 203 -120q65 -1 119.5 31t84.5 89l9 20h-11l-9 -12q-14 -19 -33 -32q-23 -19 -54 -30q-52 -22 -105 -21q-118 -1 -192 83z" />
    <glyph glyph-name="Idotaccent" unicode="&#x130;" horiz-adv-x="493" 
d="M117 0l10 8q26 21 33 68l4 37v1173l-4 37q-9 56 -43 76h102v-1399h-102zM274 1399h102l-9 -8q-25 -22 -34 -68l-4 -37v-1173l4 -37q7 -42 34 -68l9 -8h-102v1399zM159 1643q14 11 45 41l34 36l15 21l16 -21q8 -12 34 -36q28 -29 45 -41q6 -6 27 -17l-27 -18
q-45 -35 -79 -77l-15 -21l-16 21q-13 15 -34 37q-27 27 -45 40l-26 17zM191 1623v0l11 -8q12 -10 24 -22l19 -21l9 -10v0l8 10q7 10 19 21l24 22l11 8v0l-11 9q-14 10 -24 22l-19 21l-9 11v0l-8 -11l-19 -21q-12 -13 -24 -22z" />
    <glyph glyph-name="dotlessi" unicode="&#x131;" horiz-adv-x="493" 
d="M117 0l10 8q26 21 33 68l4 37v1173l-4 37q-9 56 -43 76h102v-1399h-102zM274 1399h102l-9 -8q-25 -22 -34 -68l-4 -37v-1173l4 -37q7 -42 34 -68l9 -8h-102v1399z" />
    <glyph glyph-name="Lslash" unicode="&#x141;" 
d="M185 0l10 8q35 34 37 105v492v0l-69 -25l-27 -11q-33 -16 -47 -39l-7 -13v130l7 -7q12 -11 26 -11l17 3l22 8l78 29v0v617q-2 70 -37 105l-10 8h102v-1399h-102zM601 803l28 11q29 12 49 46l7 12v-131l-10 7q-9 5 -17 5q-10 -1 -25 -5l-22 -7l-214 -76v0v-610h400
q46 -5 102 36l15 11l8 -7l-51 -95h-529v1399h102l-10 -8q-29 -25 -34 -68l-3 -37v-557v0z" />
    <glyph glyph-name="lslash" unicode="&#x142;" horiz-adv-x="872" 
d="M185 0l10 8q35 34 37 105v492v0l-69 -25l-27 -11q-33 -16 -47 -39l-7 -13v130l7 -7q12 -11 26 -11l17 3l22 8l78 29v0v617q-2 70 -37 105l-10 8h102v-1399h-102zM601 803l28 11q29 12 49 46l7 12v-131l-10 7q-9 5 -17 5q-10 -1 -25 -5l-22 -7l-214 -76v0v-610h400
q46 -5 102 36l15 11l8 -7l-51 -95h-529v1399h102l-10 -8q-29 -25 -34 -68l-3 -37v-557v0z" />
    <glyph glyph-name="OE" unicode="&#x152;" horiz-adv-x="1707" 
d="M1043 -1l-53 -10q-64 -13 -145 -12q-154 -1 -280 42q-146 48 -260 152q-243 217 -243 536q-1 305 231 516q219 200 535 200q71 0 147 -10q41 -5 64 -12l6 -2h46v-1399h-41zM1036 1244l-2 45q-8 57 -68 68q-48 11 -112 11q-296 -2 -459 -184q-170 -189 -168 -469
q1 -294 165 -489t465 -194q65 -1 121 11t58 86v1115zM418 130v0q-101 105 -146 176.5t-73 183t-27 225.5q0 261 134 434q39 52 116 129v0q-163 -124 -224 -243q-80 -153 -81 -320q-1 -115 41 -235t103 -195q53 -64 157 -155v0zM1146 0v1399h509v-102l-8 13q-20 27 -51 32
l-27 2h-368v-643h347q46 -2 76 36q2 5 8 11v-149q-22 49 -84 47h-347v-591h395h14q19 1 35 12l26 23l11 12l8 -10l-58 -92h-486z" />
    <glyph glyph-name="oe" unicode="&#x153;" horiz-adv-x="1707" 
d="M1043 -1l-53 -10q-64 -13 -145 -12q-154 -1 -280 42q-146 48 -260 152q-243 217 -243 536q-1 305 231 516q219 200 535 200q71 0 147 -10q41 -5 64 -12l6 -2h46v-1399h-41zM1036 1244l-2 45q-8 57 -68 68q-48 11 -112 11q-296 -2 -459 -184q-170 -189 -168 -469
q1 -294 165 -489t465 -194q65 -1 121 11t58 86v1115zM418 130v0q-101 105 -146 176.5t-73 183t-27 225.5q0 261 134 434q39 52 116 129v0q-163 -124 -224 -243q-80 -153 -81 -320q-1 -115 41 -235t103 -195q53 -64 157 -155v0zM1146 0v1399h509v-102l-8 13q-20 27 -51 32
l-27 2h-368v-643h347q46 -2 76 36q2 5 8 11v-149q-22 49 -84 47h-347v-591h395h14q19 1 35 12l26 23l11 12l8 -10l-58 -92h-486z" />
    <glyph glyph-name="Scedilla" unicode="&#x15e;" horiz-adv-x="910" 
d="M438 -89l8 3q15 5 37 5q59 0 98.5 -33.5t40.5 -90.5q-1 -73 -65 -118q-53 -37 -132 -37q-33 0 -57 7l-13 4l-28 77l8 2l11 -10q33 -24 97 -25q126 2 124 93q-3 73 -91 76q-44 2 -63 -33l-45 13l43 136l-11 2q-101 17 -174 50q-56 25 -81 26l-30 -2q-8 -2 -25 -1v168h8
l20 -28q33 -46 73 -77q103 -85 245 -86q143 1 205 128q29 59 29 127q-2 113 -82 196l-311 309q-42 40 -78 89q-82 107 -81 209q-1 147 114 241q110 90 256 92q46 -1 101 -12l59 -13q17 -4 36 -4q20 -1 40 6l21 7v-143h-9l-15 19q-50 54 -142 75q-43 10 -81 10
q-91 1 -156 -71q-60 -67 -59 -160q0 -109 107 -214l329 -336q115 -125 116 -266q0 -107 -49 -183q-99 -159 -316 -161h-5h-6zM293 1310v0l-41 -35q-79 -68 -79 -171q-2 -113 124 -243l323 -332q104 -106 105 -236q-2 -94 -57 -199v0q111 100 112 226q0 112 -108 227
l-332 339q-111 115 -112 230q-1 50 13 99t52 95v0z" />
    <glyph glyph-name="scedilla" unicode="&#x15f;" horiz-adv-x="910" 
d="M438 -89l8 3q15 5 37 5q59 0 98.5 -33.5t40.5 -90.5q-1 -73 -65 -118q-53 -37 -132 -37q-33 0 -57 7l-13 4l-28 77l8 2l11 -10q33 -24 97 -25q126 2 124 93q-3 73 -91 76q-44 2 -63 -33l-45 13l43 136l-11 2q-101 17 -174 50q-56 25 -81 26l-30 -2q-8 -2 -25 -1v168h8
l20 -28q33 -46 73 -77q103 -85 245 -86q143 1 205 128q29 59 29 127q-2 113 -82 196l-311 309q-42 40 -78 89q-82 107 -81 209q-1 147 114 241q110 90 256 92q46 -1 101 -12l59 -13q17 -4 36 -4q20 -1 40 6l21 7v-143h-9l-15 19q-50 54 -142 75q-43 10 -81 10
q-91 1 -156 -71q-60 -67 -59 -160q0 -109 107 -214l329 -336q115 -125 116 -266q0 -107 -49 -183q-99 -159 -316 -161h-5h-6zM293 1310v0l-41 -35q-79 -68 -79 -171q-2 -113 124 -243l323 -332q104 -106 105 -236q-2 -94 -57 -199v0q111 100 112 226q0 112 -108 227
l-332 339q-111 115 -112 230q-1 50 13 99t52 95v0z" />
    <glyph glyph-name="Scaron" unicode="&#x160;" horiz-adv-x="910" 
d="M90 223h8l20 -28q33 -46 73 -77q103 -85 246 -86q104 0 169 76t64 179q-1 112 -82 196l-311 309q-42 40 -78 89q-82 107 -81 209q-1 147 114 241q110 90 257 92q45 -1 100 -12l59 -13q17 -4 36 -4q20 -1 40 6l21 7v-143h-9l-15 19q-73 87 -225 85q-92 -2 -153 -69
t-60 -160q-1 -111 107 -216l329 -336q115 -125 116 -266q1 -159 -110 -253q-107 -90 -263 -91q-108 0 -236 55q-59 25 -82 26l-29 -2q-8 -2 -25 -1v168zM283 1299v0l-30 -24q-80 -69 -80 -172q-1 -63 28 -114q35 -67 96 -128l323 -332q104 -106 105 -236q-2 -94 -57 -199v0
q112 100 112 226q0 116 -108 227l-332 339q-112 112 -112 232q-2 115 55 181v0zM668 1721h79l-201 -201h-167l-201 201h79l205 -101v0zM462 1581v0l-214 113h-6l154 -143h132l155 143h-6z" />
    <glyph glyph-name="scaron" unicode="&#x161;" horiz-adv-x="910" 
d="M90 223h8l20 -28q33 -46 73 -77q103 -85 246 -86q104 0 169 76t64 179q-1 112 -82 196l-311 309q-42 40 -78 89q-82 107 -81 209q-1 147 114 241q110 90 257 92q45 -1 100 -12l59 -13q17 -4 36 -4q20 -1 40 6l21 7v-143h-9l-15 19q-73 87 -225 85q-92 -2 -153 -69
t-60 -160q-1 -111 107 -216l329 -336q115 -125 116 -266q1 -159 -110 -253q-107 -90 -263 -91q-108 0 -236 55q-59 25 -82 26l-29 -2q-8 -2 -25 -1v168zM283 1299v0l-30 -24q-80 -69 -80 -172q-1 -63 28 -114q35 -67 96 -128l323 -332q104 -106 105 -236q-2 -94 -57 -199v0
q112 100 112 226q0 116 -108 227l-332 339q-112 112 -112 232q-2 115 55 181v0zM668 1721h79l-201 -201h-167l-201 201h79l205 -101v0zM462 1581v0l-214 113h-6l154 -143h132l155 143h-6z" />
    <glyph glyph-name="Ydieresis" unicode="&#x178;" horiz-adv-x="1062" 
d="M70 1319q-33 58 -76 80h95l432 -734v0v-665h-102q39 21 43 76l4 37v529v0zM631 113q1 -71 37 -105l10 -8h-102v673v0l-432 726h111l-4 -4l-7 -11l-2 -13q-2 -27 20 -61l340 -566v0l339 590q5 9 10 24l3 18l-1 10q-1 6 -3 9l-3 4h119l-14 -15q-12 -14 -30 -41l-25 -38
l-366 -630v0v-562zM344 1643l45 41q25 24 34 36l15 21l16 -21l34 -36q28 -29 45 -41l26 -17l-26 -18q-47 -37 -79 -77l-15 -21l-16 21q-35 42 -79 77l-27 17zM375 1623v0l12 -8q13 -11 24 -22l18 -21l9 -10v0q7 6 9 10l18 21q7 8 25 22l11 8v0l-11 9l-25 22q-7 5 -18 21
l-9 11v0l-9 -11l-18 -21l-24 -22zM625 1643q46 35 79 77l15 21l16 -21q8 -12 34 -36q28 -29 45 -41q6 -6 27 -17l-27 -18q-45 -35 -79 -77l-15 -21l-16 21q-33 42 -79 77l-26 17zM657 1623v0l12 -8q13 -11 24 -22l18 -21l9 -10v0l9 10l18 21q10 11 24 22l12 8v0l-12 9
l-24 22l-18 21l-9 11v0l-9 -11l-18 -21l-24 -22z" />
    <glyph glyph-name="Zcaron" unicode="&#x17d;" horiz-adv-x="1252" 
d="M1024 1399l-939 -1399h-67l898 1344v0h-762q-67 -1 -116 -36l-14 -11l-7 8l50 94h957zM140 0l939 1399h68l-899 -1344v0h856l32 3q23 3 45 14l35 20q7 3 15 10l8 -7l-52 -95h-1047zM826 1721h79l-201 -201h-167l-201 201h79l205 -101v0zM620 1581v0l-214 113h-6l154 -143
h132l155 143h-6z" />
    <glyph glyph-name="zcaron" unicode="&#x17e;" horiz-adv-x="1252" 
d="M1024 1399l-939 -1399h-67l898 1344v0h-762q-67 -1 -116 -36l-14 -11l-7 8l50 94h957zM140 0l939 1399h68l-899 -1344v0h856l32 3q23 3 45 14l35 20q7 3 15 10l8 -7l-52 -95h-1047zM826 1721h79l-201 -201h-167l-201 201h79l205 -101v0zM620 1581v0l-214 113h-6l154 -143
h132l155 143h-6z" />
    <glyph glyph-name="florin" unicode="&#x192;" 
d="M477 561l-43 -205l-46 -204q-22 -84 -43 -155q-75 -238 -259 -239q-37 0 -78 11q-34 9 -48 9q-14 -1 -33 -5l-30 -8l53 159h8l5 -24q17 -86 85 -85q120 -3 186 213q25 82 46 167l40 183l40 183h-77l-28 -2q-34 -6 -53 -21l-10 -10l24 127l7 -8q22 -27 71 -25h79
q17 72 22 98l20 97q15 72 36 136q35 110 107 170q86 72 188 73q41 0 77 -13l35 -13q10 -4 22 -4q14 -1 35 6l24 7l-53 -159h-8l-3 20q-17 96 -122 99q-75 0 -131 -79q-48 -68 -68 -142q-12 -39 -32 -144q-5 -27 -16 -75l-17 -77h163q49 -2 81 25l9 8l-24 -127l-6 10
q-16 16 -45 21l-27 2h-163v0zM139 -201v0q119 53 165 207q20 65 41 156l118 516l22 111q15 88 29 141q24 89 81 160l27 31v0q-19 -12 -31 -22q-73 -55 -105 -164q-18 -60 -33 -135q-129 -621 -181 -784q-24 -74 -57 -132q-24 -43 -76 -85v0z" />
    <glyph glyph-name="circumflex" unicode="&#x2c6;" 
d="M269 1520h-79l201 201h167l201 -201h-79l-205 101v0zM475 1659v0l214 -113h6l-154 144h-133l-154 -144h6z" />
    <glyph glyph-name="caron" unicode="&#x2c7;" 
d="M674 1721h79l-201 -201h-167l-201 201h79l205 -101v0zM468 1581v0l-214 113h-6l154 -143h132l155 143h-6z" />
    <glyph glyph-name="breve" unicode="&#x2d8;" 
d="M726 1722l-6 -20q-26 -80 -94 -131t-154 -51q-79 -1 -148 45.5t-100 136.5l-7 20h70l5 -10q21 -42 82 -64q45 -18 98 -17q50 -1 97 17q53 18 82 64l5 10h70zM271 1693h-12l9 -20q64 -122 203 -120q65 -1 119.5 31t84.5 89l9 20h-11l-9 -12q-14 -19 -33 -32
q-23 -19 -54 -30q-52 -22 -105 -21q-118 -1 -192 83z" />
    <glyph glyph-name="dotaccent" unicode="&#x2d9;" 
d="M386 1643q14 11 45 41l34 36l15 21l16 -21q8 -12 34 -36q28 -29 45 -41q6 -6 27 -17l-27 -18q-45 -35 -79 -77l-15 -21l-16 21q-13 15 -34 37q-27 27 -45 40l-26 17zM418 1623v0l11 -8q12 -10 24 -22l19 -21l9 -10v0l8 10q7 10 19 21l24 22l11 8v0l-11 9q-14 10 -24 22
l-19 21l-9 11v0l-8 -11l-19 -21q-12 -13 -24 -22z" />
    <glyph glyph-name="ring" unicode="&#x2da;" 
d="M374 1755.5q41 40.5 100 42.5q56 -2 98.5 -41.5t40.5 -95.5q-2 -59 -41.5 -99t-97.5 -42q-93 2 -129 88l-8 25l-2 23q-2 59 39 99.5zM475 1751q-89 -3 -93 -90q2 -92 92 -94q88 2 92 94q2 36 -27 63q-33 30 -64 27z" />
    <glyph glyph-name="ogonek" unicode="&#x2db;" 
d="M892 -257q-25 -17 -57 -25t-66 -7q-79 -2 -124 41q-53 50 -52 119q0 114 110 147q21 7 52 11h95l15 -29l-70 -3q-128 -7 -131 -118q-1 -50 30 -84.5t82 -34.5q71 0 120 47l13 15l5 -4l-22 -75v0z" />
    <glyph glyph-name="tilde" unicode="&#x2dc;" 
d="M772 1659q-72 -142 -140 -139q-18 -1 -35 5l-37 12l-127 51q-23 8 -39 12l-24 2q-54 -1 -97 -32l-22 -19q-7 -6 -16 -20l-33 10q15 27 25 40q92 130 181 134q20 0 38 -5t40 -13q64 -24 115 -48l25 -11q12 -6 26 -5q56 2 92 52l10 13l33 -8zM732 1638v0l-9 -11
q-16 -18 -50 -25l-20 -2q-18 -1 -29 4l-28 11l-134 53l-27 10q-13 4 -29 4q-35 0 -72 -27q-23 -15 -39 -34l-12 -14v0l13 9q8 6 24 10q28 8 52 9q18 0 34 -4l23 -7q69 -24 146 -56l23 -9q16 -7 33 -6q50 -2 95 74z" />
    <glyph glyph-name="hungarumlaut" unicode="&#x2dd;" 
d="M256 1520l223 201h234l-381 -201h-76zM489 1688v0l-157 -139v0l260 139v0h-103zM534 1520l224 201h234l-382 -201h-76zM767 1688v0l-155 -138v0l259 138v0h-104z" />
    <glyph glyph-name="pi" unicode="&#x3c0;" horiz-adv-x="1252" 
d="M170 698q33 52 72 89q84 82 284 84l211 -3l136 -1l163 2l140 6l46 3l-30 -160h-312q-31 -141 -31 -245q0 -183 46 -350q14 -55 15 -90q0 -64 -88 -64q-137 1 -135 205q-1 105 22 212q29 142 81 332h-152l-121 -589q-13 -63 -29 -100q-26 -58 -105 -60q-83 -3 -85 63
q1 35 36 126l216 560h-97q-84 0 -134 -26q-44 -23 -104 -87l-42 -46l-62 42z" />
    <glyph glyph-name="endash" unicode="&#x2013;" 
d="M190 673h567v-55h-567v55zM190 783h567v-55h-567v55z" />
    <glyph glyph-name="emdash" unicode="&#x2014;" horiz-adv-x="1403" 
d="M65 673h1258v-55h-1258v55zM65 783h1258v-55h-1258v55z" />
    <glyph glyph-name="quoteleft" unicode="&#x2018;" horiz-adv-x="531" 
d="M175 1257l40 41q23 26 38 51l26 49l13 25h24l-24 -93q4 -4 4 -5l19 -26q10 -17 40 -42l23 -21l-23 -21q-23 -22 -40 -43q-14 -17 -32 -44l-18 -27l-18 27l-32 44q-18 21 -40 43l-23 21zM207 1235v0l6 -5l24 -25q16 -18 23 -31l5 -10v0l5 10q8 14 23 31l24 25l6 6v0l-6 6
l-24 25q-15 14 -23 31l-5 9l-5 -9q-10 -18 -23 -31l-24 -25z" />
    <glyph glyph-name="quoteright" unicode="&#x2019;" horiz-adv-x="531" 
d="M355 1267l-40 -41q-24 -27 -38 -51l-26 -49l-13 -25h-24l24 93q-5 3 -4 5l-19 26q-11 16 -40 42l-23 21l23 21q22 21 40 43q13 16 32 44l18 27l18 -27q18 -28 32 -44q17 -22 40 -43l23 -21zM323 1289v0l-6 5q-11 8 -26 25t-21 31l-5 9v0l-5 -9q-7 -14 -22 -31t-25 -25
l-6 -5v0l6 -7l24 -25q13 -14 23 -31l5 -9l5 9q9 17 23 31l24 25z" />
    <glyph glyph-name="quotesinglbase" unicode="&#x201a;" horiz-adv-x="531" 
d="M355 81q-50 -48 -64 -70.5t-40 -83.5l-13 -29h-24l24 109l-4 6l-19 25q-21 24 -40 43l-23 20l23 21q22 21 40 43q13 16 32 44l18 27l18 -27q18 -28 32 -44q17 -22 40 -43l23 -21zM323 101v0l-6 6l-24 25q-15 14 -23 31l-5 9v0l-5 -9q-9 -17 -23 -31l-24 -25l-6 -6v0l6 -5
q10 -9 25 -26t22 -30l5 -9l5 9q6 13 21 30t26 26z" />
    <glyph glyph-name="quotedblleft" unicode="&#x201c;" horiz-adv-x="607" 
d="M37 1257q48 46 77 92l26 49l13 25h24l-24 -93q4 -4 4 -5l19 -26q10 -14 41 -42l23 -21l-23 -21q-30 -28 -40 -43l-31 -44q-6 -10 -20 -27l-18 27l-32 44l-39 43l-24 21zM68 1235v0l7 -5q8 -7 22 -24t24 -32l6 -10v0l5 10q6 11 24 31q11 14 23 25l6 6v0l-6 6l-24 25
q-17 18 -25 31l-5 9l-5 -9q-8 -13 -23 -31l-22 -25zM366 1257l40 41q20 23 37 51q10 16 27 49l13 25h24l-24 -93q4 -4 4 -5l19 -26q12 -19 40 -42l24 -21l-24 -21q-19 -19 -39 -43l-32 -44l-18 -27l-19 27l-32 44q-18 21 -40 43l-23 21zM398 1235v0l6 -5l24 -25l23 -31
l6 -10v0l5 10q18 30 46 56q2 0 7 6v0l-7 6l-24 25q-15 17 -23 31l-5 9l-5 -9q-10 -18 -23 -31l-24 -25z" />
    <glyph glyph-name="quotedblright" unicode="&#x201d;" horiz-adv-x="607" 
d="M240 1268q-65 -62 -104 -142l-12 -25h-24l23 93q-5 3 -4 5l-18 26q-12 14 -41 43l-23 21l23 21q29 28 40 42l31 44l20 27l18 -27l32 -44q18 -23 39 -42l24 -21zM209 1289v0l-7 5q-10 7 -23.5 23.5t-22.5 32.5l-6 9v0l-5 -9q-4 -7 -24 -31q-12 -15 -23 -25l-6 -5v0l6 -7
l24 -25q15 -16 24 -31l5 -9l5 9q8 13 23 31q10 13 23 25zM570 1268l-40 -41q-20 -23 -37 -52q-12 -18 -27 -49l-13 -25h-24l24 93q-5 3 -4 5l-19 26q-14 17 -40 43l-23 21l23 21q23 22 40 42q13 15 32 44l18 27l18 -27q18 -29 32 -44q16 -20 40 -42l23 -21zM538 1289v0l-6 5
q-11 8 -26 25t-21 31l-5 9v0l-5 -9q-7 -14 -22 -31t-25 -25l-6 -5v0l6 -7l24 -25q13 -14 23 -31l5 -9l5 9q9 17 23 31l24 25z" />
    <glyph glyph-name="quotedblbase" unicode="&#x201e;" horiz-adv-x="607" 
d="M240 81q-46 -43 -77 -93q-13 -20 -28 -65l-11 -25h-24l24 109l-4 6q-8 12 -19 25l-41 43l-23 20l23 21q29 27 40 43l31 44q5 9 20 27l18 -27l32 -44q20 -25 39 -43l24 -21zM209 101v0l-7 6q-11 9 -23.5 24t-22.5 32l-6 9v0l-5 -9q-8 -13 -24 -31l-23 -25l-6 -6v0l6 -5
l24 -25q17 -20 25 -31l5 -9l5 9l23 31q13 19 22 25zM570 81q-46 -44 -77 -93l-29 -65l-11 -25h-24l24 109l-4 6l-19 25q-21 24 -40 43l-23 20l23 21q22 21 40 43q13 16 32 44l18 27l18 -27q18 -28 32 -44q17 -22 40 -43l23 -21zM538 101v0l-6 6l-24 25q-15 14 -23 31l-5 9v0
l-5 -9q-9 -17 -23 -31l-24 -25l-6 -6l6 -5q10 -9 25 -26t22 -30l5 -9l5 9q6 13 21 30t26 26z" />
    <glyph glyph-name="dagger" unicode="&#x2020;" 
d="M157 997l-22 -3q-24 -6 -41 -31l-7 -13v149q14 -37 49 -45l21 -2h235v234q-2 70 -37 105l-10 8h102v-1399h-102l10 8q35 34 37 105v884h-235zM794 1052l21 2q22 5 40 34l7 11v-149l-7 13q-16 21 -40 30l-21 4h-237v-884l3 -37q6 -56 44 -76h-102v1399h102l-10 -8
q-29 -25 -34 -68l-3 -37v-234h237z" />
    <glyph glyph-name="daggerdbl" unicode="&#x2021;" 
d="M345 0l10 8q35 34 37 105v334h-235l-21 -2q-28 -4 -43 -33l-6 -12v149l7 -14q14 -24 41 -31l22 -2h235v495h-235l-22 -3q-24 -6 -41 -31l-7 -13v149q14 -37 49 -45l21 -2h235v234q-2 70 -37 105l-10 8h102v-1399h-102zM502 0v1399h102l-10 -8q-29 -25 -34 -68l-3 -37
v-234h237l21 2q22 5 40 34l7 11v-149l-7 13q-16 21 -40 30l-21 4h-237v-495h237l21 2q26 5 40 31l7 14v-149l-7 11q-14 24 -40 33l-21 3h-237v-334l3 -37q6 -56 44 -76h-102z" />
    <glyph glyph-name="bullet" unicode="&#x2022;" horiz-adv-x="1479" 
d="M379.5 1096q150.5 149 359.5 149q207 1 360 -151q150 -149 150 -359q0 -137 -68.5 -255.5t-187 -187t-254.5 -67.5q-211 -1 -360.5 147.5t-149.5 362.5q0 212 150.5 361z" />
    <glyph glyph-name="ellipsis" unicode="&#x2026;" horiz-adv-x="1214" 
d="M105 157q27 26 40 42l31 44l19 27l18 -27q18 -29 32 -44q16 -20 40 -42l23 -21l-23 -22q-42 -40 -72 -86l-18 -28l-19 28l-31 44q-15 20 -40 42l-23 21zM137 135v0l6 -5q28 -27 47 -57l5 -9v0l5 9q8 13 23 31l24 26l6 6v0l-6 5l-24 26q-17 19 -23 30l-5 10v0l-5 -10
q-7 -12 -23 -30l-24 -26zM516 157l39 42q13 16 32 44l18 27l20 -27l31 -44q10 -14 40 -42l23 -21l-23 -22q-28 -27 -40 -42q-6 -6 -31 -44l-20 -28l-18 28l-32 44q-20 23 -39 42l-24 21zM547 135v0l7 -5q7 -7 23 -26l23 -31l6 -9v0l5 9q8 13 23 31l24 26l6 6v0l-6 5
q-10 8 -24 26l-23 30l-6 10v0l-5 -10l-23 -30q-12 -16 -23 -26zM927 157q24 23 39 42l32 44l20 27l18 -27q18 -28 32 -44q17 -22 39 -42l23 -21l-23 -22q-24 -23 -39 -42l-32 -44l-18 -28l-20 28l-32 44q-17 20 -39 42l-23 21zM958 135v0l7 -5q9 -9 23 -26l23 -31l7 -9v0
l5 9q6 11 23 31l23 26l7 6v0l-7 5l-23 26q-16 15 -23 30l-5 10v0l-7 -10q-7 -11 -22 -29.5t-24 -26.5q-3 -1 -7 -6v0z" />
    <glyph glyph-name="perthousand" unicode="&#x2030;" horiz-adv-x="1934" 
d="M781 573q80 129 199 131q86 0 158 -79q59 -64 85 -159q16 -60 16 -123q0 -65 -17 -129t-49 -117q-71 -121 -187 -120q-122 1 -202 131q-64 98 -64 228q-1 137 61 237zM1150 336q-2 160 -59 254q-41 71 -112 73q-71 -3 -111 -72q-59 -98 -59 -251q0 -111 33 -196
q48 -125 140 -124q73 0 111 70q57 99 57 246zM1122 77v0q16 19 23 30q63 91 64 226q0 68 -22 141q-26 82 -88 159v0l29 -60q26 -57 39 -110.5t13 -117.5q0 -121 -40 -227zM856 625v0q-104 -119 -106 -288q0 -73 23 -141q15 -47 38 -79l28 -36v0l-19 41q-41 94 -41 211
q-1 126 45 231q9 21 32 61v0zM1370 573q80 129 200 131q118 0 196 -130q62 -105 62 -234t-60 -232q-75 -131 -190 -131q-125 0 -205 131q-64 98 -64 228q-1 138 61 237zM1739 328q-1 165 -59 260q-41 71 -112 73q-71 -3 -111 -72q-59 -98 -59 -250q0 -111 33 -196
q48 -124 140 -123q88 1 134 119q34 88 34 189zM1711 75v0l24 32q61 90 63 225q0 73 -21 142q-18 60 -50 107q-11 16 -35 46v0l27 -54q25 -54 37.5 -111.5t12.5 -122.5q-1 -122 -39 -222zM1445 623v0q-105 -115 -106 -287q0 -152 92 -260v0l-22 46q-41 89 -41 211
q-2 152 77 290v0zM984 1194h45l-645 -1217h-43zM183 1063q78 129 200 131q115 1 195 -130q63 -103 63 -234q0 -129 -59 -233q-75 -130 -191 -130q-126 0 -205 130q-64 98 -64 228q-1 136 61 238zM552 825q-2 117 -32 197q-48 126 -138 129q-113 -4 -152 -170
q-19 -75 -19 -153q0 -112 33 -197q48 -122 143 -121q88 2 133 123q32 86 32 192zM525 569v0l22 28q62 86 64 226q0 72 -21 141q-18 60 -50 107q-12 17 -38 50v0q20 -38 29 -58q25 -56 38 -112t13 -120q-1 -133 -39 -224zM259 1116v0q-62 -70 -85 -145.5t-22 -145.5
q0 -129 61 -219q8 -14 29 -38v0l-20 44q-41 91 -41 210q-1 132 45 230z" />
    <glyph glyph-name="guilsinglleft" unicode="&#x2039;" horiz-adv-x="303" 
d="M216 900h55l-83 -422l83 -422h-55l-199 422zM63 478l139 -306h12l-75 306l75 306h-12z" />
    <glyph glyph-name="guilsinglright" unicode="&#x203a;" horiz-adv-x="303" 
d="M86 56h-55l84 422l-84 422h55l199 -422zM239 478l-138 306h-12l74 -306l-74 -306h12z" />
    <glyph glyph-name="franc" unicode="&#x20a3;" horiz-adv-x="2086" 
d="M109 0l10 8q35 34 37 105v1173q-2 70 -37 105l-10 8h102v-1399h-102zM266 1399h551v-102l-8 13q-19 26 -50 32l-28 2h-410v-643h363q46 -2 76 36q2 5 8 11v-149q-22 49 -84 47h-363v-533q-1 -10 4 -37q7 -57 43 -76h-102v1399zM1196 113q1 -71 37 -105l10 -8h-102v1399
h131l93 -2q164 -8 275 -110q120 -110 120 -268q0 -90 -42 -172q-45 -87 -124 -144q-32 -23 -80 -47l-24 -12l16 -26q114 -179 308 -394q127 -143 240 -203q17 -11 78 -33v-11h-152l-39 19q-276 138 -453 365q-84 106 -162 227l-15 23h-115v-498zM1918 54v0l-101 93
q-120 114 -230 258q-67 85 -142 199l-14 21l-62 -8l20 -27q107 -145 163 -215q127 -163 366 -321v0zM1196 1344v-678h66q140 2 235.5 104t97.5 243q0 66 -26 130q-67 161 -224 195q-28 6 -54 6h-95zM1501 702v0q36 19 53 33q150 109 151 284q-3 183 -173 279l-43 21v0
l39 -33q62 -56 94 -130q28 -66 28 -143q0 -71 -24 -134q-28 -76 -88 -139zM984 0l10 8q26 21 33 68l4 37v1173l-4 37q-9 56 -43 76h102v-1399h-102z" />
    <glyph glyph-name="trademark" unicode="&#x2122;" horiz-adv-x="1252" 
d="M207 1364h477l10 -223h-40l-19 60q-14 43 -34 73q-26 40 -102 50v-413q0 -46 5 -62q10 -29 48 -34l36 -5v-40h-285v40l29 4q60 7 60 97v413q-61 -7 -92 -42q-26 -30 -49 -90l-19 -51h-40zM726 810l25 6q65 18 64 90v339q0 40 -4 51q-8 21 -42 23l-43 5v40h225l116 -392
l129 392h225v-40l-30 -3q-61 -6 -59 -84v-327q-1 -52 4 -64q9 -22 54 -31l31 -5v-40h-285v40l34 6q38 7 49 32q5 14 6 62v402l-180 -542h-25l-158 525v-385q0 -78 55 -92l34 -8v-40h-225v40z" />
    <glyph glyph-name="Omega" unicode="&#x2126;" horiz-adv-x="1252" 
d="M187 422l16 -65q18 -80 47 -110.5t111 -30.5h78l-83 154l-114 195q-140 241 -139 398q1 219 170 351q152 118 379 120q167 -1 300 -70q148 -76 212 -219q38 -86 38 -175q-2 -171 -139 -405l-114 -195l-83 -154h78q79 0 109.5 31.5t48.5 109.5l16 65l73 -11l-74 -411h-409
l83 225q41 117 77 238q92 311 95 503q-2 271 -194 358q-57 26 -116 26q-61 0 -117 -26q-125 -57 -168 -192q-27 -80 -26 -162q-1 -91 19 -197q23 -135 76 -310q35 -121 77 -238q26 -76 83 -225h-409l-74 411z" />
    <glyph glyph-name="partialdiff" unicode="&#x2202;" horiz-adv-x="1024" 
d="M751 873l2 65q0 100 -19 216q-30 176 -131 178q-62 1 -108 -99q-19 -39 -32 -60q-31 -42 -79 -42q-41 2 -68 25q-34 28 -33 63q0 74 69 138q77 76 194 77q77 0 145 -40q235 -139 237 -578q0 -307 -105 -533q-146 -316 -408 -314q-68 -1 -126 25q-199 83 -201 344
q-1 99 37 197.5t107 178.5q63 74 146 117q76 40 162 40q85 0 160 -40l45 -26zM263 287q-1 -59 17 -113q35 -118 142 -121q133 2 208 199q58 152 60 300q0 54 -18 113q-36 119 -147 122q-105 0 -171 -124q-90 -160 -91 -376z" />
    <glyph glyph-name="Delta" unicode="&#x2206;" horiz-adv-x="1365" 
d="M740 1403l582 -1403h-1285zM220 195v0h800v0l-353 891z" />
    <glyph glyph-name="product" unicode="&#x220f;" horiz-adv-x="1479" 
d="M94 81q92 6 120 55q21 38 23 136v851l-2 84q-5 68 -55 93q-36 17 -111 22l-34 2v79h1407v-79l-39 -2q-153 -9 -161 -118l-2 -81v-851q0 -99 20 -134q30 -50 119 -56q27 -3 63 -3v-79h-620v79l50 3q139 8 150 120l2 70v851l-2 76q-9 125 -145 125h-282q-134 -4 -140 -125
l-2 -76v-851q0 -98 20 -132q30 -51 117 -58q28 -3 65 -3v-79h-620v79z" />
    <glyph glyph-name="summation" unicode="&#x2211;" horiz-adv-x="2048" 
d="M910 441l-484 952h1124l46 -367l-70 -15l-17 40q-27 60 -62 114q-65 100 -143 123q-72 21 -190 23h-406v0l373 -744l-453 -759v0h526q143 0 223 55t147 177l22 42l70 -21l-117 -462h-1082z" />
    <glyph glyph-name="minus" unicode="&#x2212;" 
d="M119 309v49h709v-49h-709zM828 407h-709v49h709v-49z" />
    <glyph glyph-name="fraction" unicode="&#x2215;" horiz-adv-x="114" 
d="M336 1194l44 -18l-605 -1199l-42 24z" />
    <glyph glyph-name="radical" unicode="&#x221a;" horiz-adv-x="1479" 
d="M1345 1550h384v-86h-282v0l-556 -1825h-75l-571 824l-146 -106l-44 97l299 195l509 -753v0z" />
    <glyph glyph-name="infinity" unicode="&#x221e;" horiz-adv-x="2048" 
d="M1109 782q129 168 304 170q145 -1 246.5 -104.5t102.5 -271.5q1 -91 -32 -166q-28 -67 -77 -115q-98 -100 -233 -99q-192 1 -300 176l-25 43l-25 -38q-36 -56 -74 -96q-123 -134 -297 -132q-82 -1 -164 35q-159 66 -219 219q-32 77 -31 168q0 131 62 235q67 110 183 160
q75 33 157 33q169 -1 284 -120q40 -42 81 -106l24 -38zM989 621q-114 216 -316 215q-118 0 -197.5 -75t-78.5 -192q0 -107 64 -181q69 -78 175 -76q91 0 183 69q76 57 127 152zM1163 568q89 -208 275 -209q91 -1 151.5 61.5t60.5 151.5q-2 97 -62 156q-28 28 -68.5 44.5
t-84.5 16.5q-165 1 -272 -221z" />
    <glyph glyph-name="integral" unicode="&#x222b;" horiz-adv-x="2048" 
d="M779.5 -247.5q26.5 29.5 66.5 31.5q81 1 86 -91q-1 -15 -4 -28q-6 -20 -6 -28q-2 -22 27 -24q76 -3 75 149q0 88 -12 162l-89 548q-37 240 -38 576q2 528 244 528q62 0 109.5 -42t48.5 -105q0 -103 -93 -103q-84 -3 -85 79q0 12 3 22q14 45 14 49q1 6 -8.5 13.5
t-18.5 7.5q-83 1 -82 -146q0 -137 66 -480q25 -126 39 -235q33 -253 34 -531q-1 -158 -18 -294q-35 -280 -215 -277q-66 -1 -117.5 39t-51.5 110q-1 40 25.5 69.5z" />
    <glyph glyph-name="approxequal" unicode="&#x2248;" horiz-adv-x="2048" 
d="M415 277q27 48 45 70q27 35 81 77q115 91 217 92q85 -1 194 -31l177 -51q55 -17 131 -32q99 -22 145 -21q118 1 244 123l37 -22q-87 -175 -221 -229q-53 -23 -103 -22q-59 -1 -137 19q-55 12 -122 31l-188 50q-130 35 -207 35q-40 0 -89 -15q-67 -21 -124 -64l-49 -42
l-31 32v0zM1686 829q-118 -246 -325 -246q-96 1 -327 62l-144 40q-116 33 -184 33q-51 0 -107 -24q-64 -27 -120 -73l-33 -28l-31 34l48 69q125 169 302 172q98 -1 220 -36l135 -40q196 -59 293 -59q40 -1 80 14q70 25 121 76q17 16 38 41z" />
    <glyph glyph-name="notequal" unicode="&#x2260;" horiz-adv-x="2048" 
d="M1201 828v0l316 369h165l-315 -369v0h313v-135h-430v0l-236 -277v0h666v-135h-782v0l-319 -374h-167l320 374v0h-323v135h439v0l236 277v0h-675v135h792z" />
    <glyph glyph-name="lessequal" unicode="&#x2264;" horiz-adv-x="2048" 
d="M1690 135v-135h-1271v135h1271zM1690 1241v-135l-1067 -413v0l1067 -311v-135l-1271 379v135z" />
    <glyph glyph-name="greaterequal" unicode="&#x2265;" horiz-adv-x="2048" 
d="M1690 0h-1271v135h1271v-135zM1690 626l-1271 -379v135l1067 311v0l-1067 413v135l1271 -480v-135z" />
    <glyph glyph-name="lozenge" unicode="&#x25ca;" horiz-adv-x="2048" 
d="M1023 1387l635 -705l-635 -705l-635 705zM498 682l525 -595l525 595l-525 595z" />
    <glyph glyph-name="apple" unicode="&#xf000;" horiz-adv-x="1618" 
d="M1330 924q-44 -82 -45 -184q0 -117 59 -202q43 -59 159 -141q-40 -98 -64 -144q-156 -294 -297 -293q-49 0 -202 49q-54 17 -92 17q-43 1 -106 -23q-118 -44 -170 -43q-114 -1 -235 184q-89 136 -143 276q-58 144 -57 294q1 196 99 343q118 177 301 177q74 -1 157 -29
q125 -45 159 -44q37 0 158 42q88 30 163 31q162 -3 288 -173q-98 -73 -132 -137zM824 1280q1 95 77 188q72 88 169 116q25 7 69 16q0 -71 -1 -80q-29 -255 -307 -312q-8 45 -7 72z" />
    <glyph glyph-name="fi" unicode="&#xf001;" horiz-adv-x="1252" 
d="M109 0l10 8q35 34 37 105v1173q-2 70 -37 105l-10 8h102v-1399h-102zM266 1399h551v-102l-8 13q-19 26 -50 32l-28 2h-410v-643h363q46 -2 76 36q2 5 8 11v-149q-22 49 -84 47h-363v-533q-1 -10 4 -37q7 -57 43 -76h-102v1399zM871 0l10 8q26 21 33 68l4 37v1173l-4 37
q-9 56 -43 76h102v-1399h-102zM1028 1399h102l-9 -8q-25 -22 -34 -68l-4 -37v-1173l4 -37q7 -42 34 -68l9 -8h-102v1399z" />
    <glyph glyph-name="fl" unicode="&#xf002;" horiz-adv-x="1669" 
d="M109 0l10 8q35 34 37 105v1173q-2 70 -37 105l-10 8h102v-1399h-102zM266 1399h551v-102l-8 13q-19 26 -50 32l-28 2h-410v-643h363q46 -2 76 36q2 5 8 11v-149q-22 49 -84 47h-363v-533q-1 -10 4 -37q7 -57 43 -76h-102v1399zM871 0l10 8q35 34 37 105v1173
q-2 70 -37 105l-10 8h102v-1399h-102zM1028 1399h102l-10 -8q-29 -25 -34 -68l-3 -37v-1231h400q46 -5 102 36l15 11l8 -7l-51 -95h-529v1399z" />
  </font>
</defs>
</svg>
